DreamRoad: Автокультурное путешествие от BMIRussian / DreamRoad: An AutoCulture Adventure from BMIRussian [2015, Автопутешествие, HDRip 1080p] (Обновлено 12.06.15) 

Цитировать
DreamRoad: Автокультурное путешествие от BMIRussian / DreamRoad: An AutoCulture Adventure from BMIRussian
Режиссер: А. Герасименко и А. Миловидов
Жанр: Автопутешествие
Дата выпуска: 2015
Перевод: не требуется
Описание: Команда BMIRussian долго занималась переводами иностранных автомобильных шоу. И, в конце концов, решилась снять своё.
DreamRoad: АвтоКультурное путешествие - это роудмуви, видео о путешествии по какой-либо стране с кратким рассказом о всяких культурных достопримечательностях, и с обязательным посещением "автокультурных ценностей". Таких, как тюнинг-ателье, гоночные трассы, и автомузеи. Ну, и, разумеется, ребята пообщаются с людьми, занимающимися всем этим.

MediaInfo

Общее
Полное имя : E:\DreamRoad - AutoCulture Adventure [BMIRussian]\S00E01 DreamRoad An AutoCulture Adventure - Lithuania.mp4
Формат : MPEG-4
Профиль формата : Base Media / Version 2
Идентификатор кодека : mp42
Размер файла : 1,37 Гбайт
Продолжительность : 23 м.
Режим общего битрейта : Переменный
Общий поток : 8339 Кбит/сек
Дата кодирования : UTC 2015-05-22 08:47:21
Дата пометки : UTC 2015-05-22 08:48:37
©TIM : 00:00:00:00
©TSC : 25
©TSZ : 1
Видео
Идентификатор : 1
Формат : AVC
Формат/Информация : Advanced Video Codec
Профиль формата : High@L4
Параметр CABAC формата : Да
Параметр ReFrames формата : 3 кадра
Идентификатор кодека : avc1
Идентификатор кодека/Информация : Advanced Video Coding
Продолжительность : 23 м.
Вид битрейта : Переменный
Битрейт : 8014 Кбит/сек
Максимальный битрейт : 10,1 Мбит/сек
Ширина : 1920 пикселей
Высота : 1080 пикселей
Соотношение сторон : 16:9
Режим частоты кадров : Постоянный
Частота кадров : 25,000 кадров/сек
Стандарт вещания : PAL
Цветовое пространство : YUV
Субдискретизация насыщенности : 4:2:0
Битовая глубина : 8 бит
Тип развёртки : Прогрессивная
Бит/(Пиксели*Кадры) : 0.155
Размер потока : 1,32 Гбайт (96%)
Язык : English
Дата кодирования : UTC 2015-05-22 08:47:21
Дата пометки : UTC 2015-05-22 08:47:21
colour_range : Limited
Основные цвета : BT.709
Характеристики трансфера : BT.709
Коэффициенты матрицы : BT.709
Аудио
Идентификатор : 2
Формат : AAC
Формат/Информация : Advanced Audio Codec
Профиль формата : LC
Идентификатор кодека : 40
Продолжительность : 23 м.
Продолжительность оригинала : 23 м.
Вид битрейта : Переменный
Битрейт : 317 Кбит/сек
Максимальный битрейт : 421 Кбит/сек
Каналы : 2 канала
Расположение каналов : Front: L R
Частота : 48,0 КГц
Метод сжатия : С потерями
Размер потока : 53,5 Мбайт (4%)
Размер потока оригинала : 53,5 Мбайт (4%)
Язык : English
Дата кодирования : UTC 2015-05-22 08:47:21
Дата пометки : UTC 2015-05-22 08:47:21

Список серий

S00E01 DreamRoad An AutoCulture Adventure - Lithuania
S00E02 DreamRoad An AutoCulture Adventure - Latvia

Скриншоты

Вы не можете начинать темы
Вы не можете отвечать на сообщения
Вы не можете редактировать свои сообщения
Вы не можете удалять свои сообщения
Вы не можете голосовать в опросах
Вы не можете прикреплять файлы к сообщениям
Вы можете скачивать файлы
!ВНИМАНИЕ!

Сайт не предоставляет электронные версии произведений, а занимается лишь коллекционированием и каталогизацией ссылок, присылаемых и публикуемых на форуме нашими читателями. Если вы являетесь правообладателем какого-либо представленного материала и не желаете, чтобы ссылка на него находилась в нашем каталоге, свяжитесь с нами, и мы незамедлительно удалим ее. Файлы для обмена на трекере предоставлены пользователями сайта, и администрация не несет ответственности за их содержание. Просьба не заливать файлы, защищенные авторскими правами, а также файлы нелегального содержания!

Искали программы, игры, дополнения, музыка mp3, аниме, аудио книги, журналы? Добро пожаловать на свободный торрент трекер Torrents, у нас можно скачать бесплатно, без смс и регистрации и прочих ограничений лучшие, отборные сборки программ, игр. Скачать торрентом не составит труда даже не опытному пользователю. Раздачи ежедневно обновляются, только лучшие и качественные раздачи, подробные описания и скриншоты. Огромная коллекция программ для работы со звуком, графикой, дизайном, а так же множество плагинов и инструментов к ним с подробной инструкцией и рекомендациями. Прошивки для навигаторов, карты. Разнообразные игры, для Windows, Linux. В коллекцие есть и старые игры любых жанров, Rpg, Action, Shooter, strategy Множество дополнений, модификаций, сценариев для популярных игр в жанре экш, рпг, гонки, стратегии, логические игры. Множество аддонов и сценариев для Microsoft Flight Simulator Большая коллекция книг, учебников. Если нет возможности купить печатное издание - смело скачивайте цифровую версию книги или, быть может, журнала. Не любите читать - можно загрузить бесплатно аудикнигу. Для веб дизайнеров и программистов так же найдется множество специализированного софта, таких как: редакторы с подсветкой, среды программирования, компоненты, системы управления базами данных, разнообразные скрипты и шаблоны. Не так давно у нас появился материал для автолюбителей и владельцев мото - оригинальные и неоригинальные каталоги запчастей, книги и журналы по ремонту и обслуживанию, видеоуроки, статьи по чип тюнингу, прошивкам. Процедура получения контента элементарная, достаточно просто скачать торрент файл и добавить его в загрузку в вашем торрент клиенте. Если у вас нет специального торрент клиента, вы можете его скачать у нас.