Парк Юрского периода: Антология / Jurassic Park: Antology (1993-2015) BDRip-AVC от DrVampir | D, P, A 

Цитировать

Годы выпуска: 1993, 1997, 2001, 2015
Страна: США
Жанр: приключения, фантастика, семейный, боевик, триллер
Режиссёр: Стивен Спилберг, Джо Джонстон, Колин Треворроу.
Парк Юрского периода (1993)

Скрытый текст


Оригинальное название: Jurassic Park
Режиссер: Стивен Спилберг
Год выпуска: 1993
Страна: США
Жанр: приключения, фантастика, семейный
Продолжительность: 02:06:36
Перевод: Дублированный, профессиональный многоголосый, авторский одноголосый.
Cубтитры: Русские, английские
В ролях: Сэм Нил, Лора Дерн, Джефф Голдблюм, Ричард Аттенборо, Джозеф Маццелло, Ариана Ричардс, Уэйн Найт, Боб Пек, Мартин Ферреро, Сэмюэл Л. Джексон.
Описание: Экспансивный богач и профессор уговаривает пару ученых-палеонтологов приехать на остров у побережья Коста-Рики, где он устроил реликтовый парк. В парке этом водятся древние зверушки — динозавры, которые по его идее и должны стать гвоздем программы нового аттракциона.
До открытия остается несколько дней, а один из работников, пытаясь продать «рассаду» налево, нарушает систему охраны, что в комплексе с грозовым ливнем приводит к тому, что доисторические животные оказываются на воле, где действуют в соответствии со своими инстинктами.

Файл
Кодек: h.264
Качество: BDRip-AVC
Видео: MPEG-4, 1080x584, 23.976 fps ~2888 kbps
Звук:
1) 48 KHz, AC3, 6 ch ~448 Kbps - Dub
2) 48 KHz, AC3, 6 ch ~384 Kbps - MVO [Universal]
3) 48 KHz, AC3, 6 ch ~384 Kbps - MVO [Киномания]
4) 48 KHz, AC3, 6 ch ~384 Kbps - AVO [Гаврилов]
5) 48 KHz, AC3, 6 ch ~448 Kbps - Original
Media Info:
Скрытый текстGeneral
Unique ID : 203126539249680437573769674208011737728 (0x98D0BF9A07D74869AF5CF0C20345DA80)
Complete name : M:VideoПарк Юрского периода - Антология [1993-2015]1.Парк Юрского периода (1993).mkv
Format : Matroska
Format version : Version 4 / Version 2
File size : 4.36 GiB
Duration : 2 h 6 min
Overall bit rate : 4 931 kb/s
Movie name : Jurassic Park (1993)
Encoded date : UTC 2017-08-15 12:22:19 / UTC 2017-08-14T02:25:06Z
Writing application : mkvmerge v12.0.0 ('Trust / Lust') 64bit
Writing library : libebml v1.3.4 + libmatroska v1.4.5 / Lavf57.7.2
Cover : Yes
Attachments : Cover.jpg
Video
ID : 1
Format : AVC
Format/Info : Advanced Video Codec
Format profile : High@L4.1
Format settings, CABAC : Yes
Format settings, RefFrames : 13 frames
Codec ID : V_MPEG4/ISO/AVC
Duration : 2 h 6 min
Bit rate : 2 888 kb/s
Width : 1 080 pixels
Height : 584 pixels
Display aspect ratio : 1.85:1
Frame rate mode : Constant
Frame rate : 23.976 (24000/1001) FPS
Color space : YUV
Chroma subsampling : 4:2:0
Bit depth : 8 bits
Scan type : Progressive
Bits/(Pixel*Frame) : 0.191
Stream size : 2.46 GiB (56%)
Title : MPEG-4, 1080x584, 23.976 fps ~2888 kbps
Writing library : x264 core 148 r2708 86b7198
Encoding settings : cabac=1 / ref=13 / deblock=1:-3:-3 / analyse=0x3:0x133 / me=umh / subme=11 / psy=1 / psy_rd=1.00:0.20 / mixed_ref=1 / me_range=48 / chroma_me=1 / trellis=2 / 8x8dct=1 / cqm=0 / deadzone=21,11 / fast_pskip=0 / chroma_qp_offset=-3 / threads=6 / lookahead_threads=1 / sliced_threads=0 / nr=0 / decimate=1 / interlaced=0 / bluray_compat=0 / constrained_intra=0 / bframes=16 / b_pyramid=2 / b_adapt=2 / b_bias=0 / direct=3 / weightb=1 / open_gop=0 / weightp=2 / keyint=240 / keyint_min=24 / scenecut=40 / intra_refresh=0 / rc_lookahead=80 / rc=2pass / mbtree=0 / bitrate=2888 / ratetol=1.0 / qcomp=0.70 / qpmin=0 / qpmax=69 / qpstep=4 / cplxblur=20.0 / qblur=0.5 / vbv_maxrate=62500 / vbv_bufsize=78125 / nal_hrd=none / filler=0 / ip_ratio=1.40 / pb_ratio=1.30 / aq=1:1.00
Language : English
Default : Yes
Forced : No
Color range : Limited
Color primaries : BT.709
Transfer characteristics : BT.709
Matrix coefficients : BT.709
Statistics Tags Issue : mkvmerge v12.0.0 ('Trust / Lust') 64bit 2017-08-15 12:22:19 / mkvmerge v12.0.0 ('Trust / Lust') 64bit 2017-08-15 12:22:19 / UTC 2017-08-14T02:25:06Z
FromStats_BitRate : 2885015
FromStats_Duration : 02:06:36.548000000
FromStats_FrameCount : 182135
FromStats_StreamSize : 2739519667
Audio #1
ID : 2
Format : AC-3
Format/Info : Audio Coding 3
Format settings, Endianness : Big
Codec ID : A_AC3
Duration : 2 h 6 min
Bit rate mode : Constant
Bit rate : 448 kb/s
Channel(s) : 6 channels
Channel positions : Front: L C R, Side: L R, LFE
Sampling rate : 48.0 kHz
Frame rate : 31.250 FPS (1536 SPF)
Bit depth : 16 bits
Compression mode : Lossy
Delay relative to video : -5 ms
Stream size : 406 MiB (9%)
Title : 48 KHz, AC3, 6 ch ~448 Kbps - Dub
Language : Russian
Service kind : Complete Main
Default : Yes
Forced : No
Statistics Tags Issue : mkvmerge v12.0.0 ('Trust / Lust') 64bit 2017-08-15 12:22:19 / mkvmerge v12.0.0 ('Trust / Lust') 64bit 2017-08-15 12:22:19 / UTC 2017-08-14T02:25:06Z
FromStats_BitRate : 448000
FromStats_Duration : 02:06:26.720000000
FromStats_FrameCount : 237085
FromStats_StreamSize : 424856320
Audio #2
ID : 3
Format : AC-3
Format/Info : Audio Coding 3
Format settings, Endianness : Big
Codec ID : A_AC3
Duration : 2 h 6 min
Bit rate mode : Constant
Bit rate : 384 kb/s
Channel(s) : 6 channels
Channel positions : Front: L C R, Side: L R, LFE
Sampling rate : 48.0 kHz
Frame rate : 31.250 FPS (1536 SPF)
Bit depth : 16 bits
Compression mode : Lossy
Delay relative to video : 21 s 730 ms
Stream size : 348 MiB (8%)
Title : 48 KHz, AC3, 6 ch ~384 Kbps - MVO [Universal]
Language : Russian
Service kind : Complete Main
Default : No
Forced : No
Statistics Tags Issue : mkvmerge v12.0.0 ('Trust / Lust') 64bit 2017-08-15 12:22:19 / mkvmerge v12.0.0 ('Trust / Lust') 64bit 2017-08-15 12:22:19 / UTC 2017-08-14T02:25:06Z
FromStats_BitRate : 384000
FromStats_Duration : 02:06:05.856000000
FromStats_FrameCount : 236433
FromStats_StreamSize : 363161088
Audio #3
ID : 4
Format : AC-3
Format/Info : Audio Coding 3
Format settings, Endianness : Big
Codec ID : A_AC3
Duration : 2 h 6 min
Bit rate mode : Constant
Bit rate : 384 kb/s
Channel(s) : 6 channels
Channel positions : Front: L C R, Side: L R, LFE
Sampling rate : 48.0 kHz
Frame rate : 31.250 FPS (1536 SPF)
Bit depth : 16 bits
Compression mode : Lossy
Delay relative to video : 21 s 730 ms
Stream size : 348 MiB (8%)
Title : 48 KHz, AC3, 6 ch ~384 Kbps - MVO [Киномания]
Language : Russian
Service kind : Complete Main
Default : No
Forced : No
Statistics Tags Issue : mkvmerge v12.0.0 ('Trust / Lust') 64bit 2017-08-15 12:22:19 / mkvmerge v12.0.0 ('Trust / Lust') 64bit 2017-08-15 12:22:19 / UTC 2017-08-14T02:25:06Z
FromStats_BitRate : 384000
FromStats_Duration : 02:06:05.376000000
FromStats_FrameCount : 236418
FromStats_StreamSize : 363138048
Audio #4
ID : 5
Format : AC-3
Format/Info : Audio Coding 3
Format settings, Endianness : Big
Codec ID : A_AC3
Duration : 2 h 6 min
Bit rate mode : Constant
Bit rate : 384 kb/s
Channel(s) : 6 channels
Channel positions : Front: L C R, Side: L R, LFE
Sampling rate : 48.0 kHz
Frame rate : 31.250 FPS (1536 SPF)
Bit depth : 16 bits
Compression mode : Lossy
Delay relative to video : 21 s 730 ms
Stream size : 348 MiB (8%)
Title : 48 KHz, AC3, 6 ch ~384 Kbps - AVO [Гаврилов]
Language : Russian
Service kind : Complete Main
Default : No
Forced : No
Statistics Tags Issue : mkvmerge v12.0.0 ('Trust / Lust') 64bit 2017-08-15 12:22:19 / mkvmerge v12.0.0 ('Trust / Lust') 64bit 2017-08-15 12:22:19 / UTC 2017-08-14T02:25:06Z
FromStats_BitRate : 384000
FromStats_Duration : 02:06:05.856000000
FromStats_FrameCount : 236433
FromStats_StreamSize : 363161088
Audio #5
ID : 6
Format : AC-3
Format/Info : Audio Coding 3
Format settings, Endianness : Big
Codec ID : A_AC3
Duration : 2 h 6 min
Bit rate mode : Constant
Bit rate : 448 kb/s
Channel(s) : 6 channels
Channel positions : Front: L C R, Side: L R, LFE
Sampling rate : 48.0 kHz
Frame rate : 31.250 FPS (1536 SPF)
Bit depth : 16 bits
Compression mode : Lossy
Delay relative to video : -5 ms
Stream size : 406 MiB (9%)
Title : 48 KHz, AC3, 6 ch ~448 Kbps - Original
Language : English
Service kind : Complete Main
Default : No
Forced : No
Statistics Tags Issue : mkvmerge v12.0.0 ('Trust / Lust') 64bit 2017-08-15 12:22:19 / mkvmerge v12.0.0 ('Trust / Lust') 64bit 2017-08-15 12:22:19 / UTC 2017-08-14T02:25:06Z
FromStats_BitRate : 448000
FromStats_Duration : 02:06:36.576000000
FromStats_FrameCount : 237393
FromStats_StreamSize : 425408256
Text #1
ID : 7
Format : ASS
Codec ID : S_TEXT/ASS
Codec ID/Info : Advanced Sub Station Alpha
Compression mode : Lossless
Language : Russian
Default : No
Forced : No
Statistics Tags Issue : mkvmerge v12.0.0 ('Trust / Lust') 64bit 2017-08-15 12:22:19 / mkvmerge v12.0.0 ('Trust / Lust') 64bit 2017-08-15 12:22:19 / UTC 2017-08-14T02:25:06Z
FromStats_BitRate : 3
FromStats_Duration : 01:52:58.517000000
FromStats_FrameCount : 43
FromStats_StreamSize : 3163
Text #2
ID : 8
Format : ASS
Codec ID : S_TEXT/ASS
Codec ID/Info : Advanced Sub Station Alpha
Compression mode : Lossless
Language : Russian
Default : No
Forced : No
Statistics Tags Issue : mkvmerge v12.0.0 ('Trust / Lust') 64bit 2017-08-15 12:22:19 / mkvmerge v12.0.0 ('Trust / Lust') 64bit 2017-08-15 12:22:19 / UTC 2017-08-14T02:25:06Z
FromStats_BitRate : 109
FromStats_Duration : 01:57:29.417000000
FromStats_FrameCount : 1148
FromStats_StreamSize : 96768
Text #3
ID : 9
Format : ASS
Codec ID : S_TEXT/ASS
Codec ID/Info : Advanced Sub Station Alpha
Compression mode : Lossless
Language : English
Default : No
Forced : No
Statistics Tags Issue : mkvmerge v12.0.0 ('Trust / Lust') 64bit 2017-08-15 12:22:19 / mkvmerge v12.0.0 ('Trust / Lust') 64bit 2017-08-15 12:22:19 / UTC 2017-08-14T02:25:06Z
FromStats_BitRate : 81
FromStats_Duration : 01:57:09.853000000
FromStats_FrameCount : 1217
FromStats_StreamSize : 71811
Menu
00:00:00.000 : :00:00:00.000
00:05:19.820 : :00:05:19.819
00:10:14.739 : :00:10:14.739
00:15:17.041 : :00:15:17.041
00:19:33.214 : :00:19:33.214
00:23:46.800 : :00:23:46.800
00:31:40.148 : :00:31:40.148
00:37:59.194 : :00:37:59.194
00:40:26.674 : :00:40:26.674
00:55:28.033 : :00:55:28.033
01:01:43.241 : :01:01:43.241
01:10:44.115 : :01:10:44.115
01:20:01.130 : :01:20:01.130
01:34:03.972 : :01:34:03.972
01:39:45.313 : :01:39:45.313
01:43:43.175 : :01:43:43.175
01:47:56.845 : :01:47:56.845
01:54:45.379 : :01:54:45.378
01:58:04.411 : :01:58:04.411
01:59:55.980 : :01:59:55.980

Скриншоты

Парк Юрского периода 2 - Затерянный мир (1997)

Скрытый текст


Оригинальное название: The Lost World: Jurassic Park
Режиссер: Стивен Спилберг
Год выпуска: 1997
Страна: США
Жанр: фантастика, боевик, приключения
Продолжительность: 02:08:43
Перевод: Дублированный, профессиональный многоголосый, авторский одноголосый.
Cубтитры: Русские, английские
В ролях: Джефф Голдблюм, Джулианна Мур, Винс Вон, Ванесса Ли Честер, Пит Постлетуэйт, Арлисс Ховард, Ричард Аттенборо, Ричард Шифф, Петер Стормаре, Харви Джейсон .
Описание: События этого фильма разворачиваются через четыре года после того, что произошло в «Парке Юрского периода». На близлежащем острове динозавры выжили и адаптировались к дикой природе. Но вот находится Некто, кто хочет перевезти их на материк и заработать на этом, не понимая, какими могут быть последствия, и посылает на остров своих людей.
Джон Хэммонд, который потерял контроль над своей компанией, считает, что у него появился шанс исправить свои прошлые ошибки. Он, в свою очередь, снаряжает экспедицию во главе с Яном Малкольмом, чтобы появиться там до высадки наемников.
В результате происходящих событий две эти конфликтующие группы вынуждены объединиться перед лицом смертельной опасности. И, как потом выясняется, времени им отпущено совсем немного.

Файл
Кодек: h.264
Качество: BDRip-AVC
Видео: MPEG-4, 1080x584, 23.976 fps ~2866 kbps
Звук:
1) 48 KHz, AC3, 2 ch ~256 Kbps - Dub
2) 48 KHz, AC3, 6 ch ~448 Kbps - MVO [Blu-Ray]
3) 48 KHz, AC3, 6 ch ~384 Kbps - MVO [Киномания]
4) 48 KHz, AC3, 2 ch ~224 Kbps - AVO [Живов]
5) 48 KHz, AC3, 2 ch ~192 Kbps - AVO [Визгунов]
6) 48 KHz, AC3, 6 ch ~448 Kbps - Original
Media Info:
Скрытый текстGeneral
Unique ID : 180271294259394724644377212764090928577 (0x879EFD05FF4D3AD39944C5C15E720DC1)
Complete name : M:VideoПарк Юрского периода - Антология [1993-2015]2.Парк Юрского периода 2 - Затерянный мир (1997).mkv
Format : Matroska
Format version : Version 4 / Version 2
File size : 4.33 GiB
Duration : 2 h 8 min
Overall bit rate : 4 818 kb/s
Movie name : The Lost World - Jurassic Park (1997) BDRip-AVC от DrVampir
Encoded date : UTC 2017-09-08 06:34:33 / UTC 2017-09-07T01:31:04Z
Writing application : mkvmerge v15.0.0 ('Duel with the Devil') 64-bit
Writing library : libebml v1.3.5 + libmatroska v1.4.5 / Lavf57.7.2
Cover : Yes
Attachments : Cover.jpg
Video
ID : 1
Format : AVC
Format/Info : Advanced Video Codec
Format profile : High@L4.1
Format settings, CABAC : Yes
Format settings, RefFrames : 12 frames
Codec ID : V_MPEG4/ISO/AVC
Duration : 2 h 8 min
Bit rate : 2 866 kb/s
Width : 1 080 pixels
Height : 584 pixels
Display aspect ratio : 1.85:1
Frame rate mode : Constant
Frame rate : 23.976 (24000/1001) FPS
Color space : YUV
Chroma subsampling : 4:2:0
Bit depth : 8 bits
Scan type : Progressive
Bits/(Pixel*Frame) : 0.190
Stream size : 2.49 GiB (57%)
Title : MPEG-4, 1080x584, 23.976 fps ~2866 kbps
Writing library : x264 core 148 r2708 86b7198
Encoding settings : cabac=1 / ref=12 / deblock=1:-2:-2 / analyse=0x3:0x133 / me=umh / subme=11 / psy=1 / psy_rd=1.00:0.10 / mixed_ref=1 / me_range=48 / chroma_me=1 / trellis=2 / 8x8dct=1 / cqm=0 / deadzone=21,11 / fast_pskip=0 / chroma_qp_offset=-3 / threads=6 / lookahead_threads=1 / sliced_threads=0 / nr=0 / decimate=1 / interlaced=0 / bluray_compat=0 / constrained_intra=0 / bframes=16 / b_pyramid=2 / b_adapt=2 / b_bias=0 / direct=3 / weightb=1 / open_gop=0 / weightp=2 / keyint=240 / keyint_min=24 / scenecut=40 / intra_refresh=0 / rc_lookahead=80 / rc=2pass / mbtree=0 / bitrate=2866 / ratetol=1.0 / qcomp=0.70 / qpmin=0 / qpmax=69 / qpstep=4 / cplxblur=20.0 / qblur=0.5 / vbv_maxrate=62500 / vbv_bufsize=78125 / nal_hrd=none / filler=0 / ip_ratio=1.40 / pb_ratio=1.30 / aq=1:1.00
Language : English
Default : Yes
Forced : No
Color range : Limited
Color primaries : BT.709
Transfer characteristics : BT.709
Matrix coefficients : BT.709
Statistics Tags Issue : mkvmerge v15.0.0 ('Duel with the Devil') 64-bit 2017-09-08 06:34:33 / mkvmerge v15.0.0 ('Duel with the Devil') 64-bit 2017-09-08 06:34:33 / UTC 2017-09-07T01:31:04Z
FromStats_BitRate : 2864994
FromStats_Duration : 02:08:40.296000000
FromStats_FrameCount : 185102
FromStats_StreamSize : 2764825680
Audio #1
ID : 2
Format : AC-3
Format/Info : Audio Coding 3
Format settings, Endianness : Big
Codec ID : A_AC3
Duration : 2 h 8 min
Bit rate mode : Constant
Bit rate : 256 kb/s
Channel(s) : 2 channels
Channel positions : Front: L R
Sampling rate : 48.0 kHz
Frame rate : 31.250 FPS (1536 SPF)
Bit depth : 16 bits
Compression mode : Lossy
Delay relative to video : 3 s 925 ms
Stream size : 236 MiB (5%)
Title : 48 KHz, AC3, 2 ch ~256 Kbps - Dub
Language : Russian
Service kind : Complete Main
Default : Yes
Forced : No
Statistics Tags Issue : mkvmerge v15.0.0 ('Duel with the Devil') 64-bit 2017-09-08 06:34:33 / mkvmerge v15.0.0 ('Duel with the Devil') 64-bit 2017-09-08 06:34:33 / UTC 2017-09-07T01:31:04Z
FromStats_BitRate : 256000
FromStats_Duration : 02:08:31.552000000
FromStats_FrameCount : 240986
FromStats_StreamSize : 246769664
Audio #2
ID : 3
Format : AC-3
Format/Info : Audio Coding 3
Format settings, Endianness : Big
Codec ID : A_AC3
Duration : 2 h 8 min
Bit rate mode : Constant
Bit rate : 448 kb/s
Channel(s) : 6 channels
Channel positions : Front: L C R, Side: L R, LFE
Sampling rate : 48.0 kHz
Frame rate : 31.250 FPS (1536 SPF)
Bit depth : 16 bits
Compression mode : Lossy
Delay relative to video : 37 ms
Stream size : 412 MiB (9%)
Title : 48 KHz, AC3, 6 ch ~448 Kbps - MVO [Blu-Ray]
Language : Russian
Service kind : Complete Main
Default : No
Forced : No
Statistics Tags Issue : mkvmerge v15.0.0 ('Duel with the Devil') 64-bit 2017-09-08 06:34:33 / mkvmerge v15.0.0 ('Duel with the Devil') 64-bit 2017-09-08 06:34:33 / UTC 2017-09-07T01:31:04Z
FromStats_BitRate : 448000
FromStats_Duration : 02:08:40.320000000
FromStats_FrameCount : 241260
FromStats_StreamSize : 432337920
Audio #3
ID : 4
Format : AC-3
Format/Info : Audio Coding 3
Format settings, Endianness : Big
Codec ID : A_AC3
Duration : 2 h 8 min
Bit rate mode : Constant
Bit rate : 384 kb/s
Channel(s) : 6 channels
Channel positions : Front: L C R, Side: L R, LFE
Sampling rate : 48.0 kHz
Frame rate : 31.250 FPS (1536 SPF)
Bit depth : 16 bits
Compression mode : Lossy
Delay relative to video : 3 s 925 ms
Stream size : 354 MiB (8%)
Title : 48 KHz, AC3, 6 ch ~384 Kbps - MVO [Киномания]
Language : Russian
Service kind : Complete Main
Default : No
Forced : No
Statistics Tags Issue : mkvmerge v15.0.0 ('Duel with the Devil') 64-bit 2017-09-08 06:34:33 / mkvmerge v15.0.0 ('Duel with the Devil') 64-bit 2017-09-08 06:34:33 / UTC 2017-09-07T01:31:04Z
FromStats_BitRate : 384000
FromStats_Duration : 02:08:35.360000000
FromStats_FrameCount : 241105
FromStats_StreamSize : 370337280
Audio #4
ID : 5
Format : AC-3
Format/Info : Audio Coding 3
Mode : Dolby Digital
Format settings, Endianness : Big
Codec ID : A_AC3
Duration : 2 h 8 min
Bit rate mode : Constant
Bit rate : 224 kb/s
Channel(s) : 2 channels
Channel positions : Front: L R
Sampling rate : 48.0 kHz
Frame rate : 31.250 FPS (1536 SPF)
Bit depth : 16 bits
Compression mode : Lossy
Delay relative to video : 3 s 920 ms
Stream size : 206 MiB (5%)
Title : 48 KHz, AC3, 2 ch ~224 Kbps - AVO [Живов]
Language : Russian
Service kind : Complete Main
Default : No
Forced : No
Statistics Tags Issue : mkvmerge v15.0.0 ('Duel with the Devil') 64-bit 2017-09-08 06:34:33 / mkvmerge v15.0.0 ('Duel with the Devil') 64-bit 2017-09-08 06:34:33 / UTC 2017-09-07T01:31:04Z
FromStats_BitRate : 224000
FromStats_Duration : 02:08:39.840000000
FromStats_FrameCount : 241245
FromStats_StreamSize : 216155520
Audio #5
ID : 6
Format : AC-3
Format/Info : Audio Coding 3
Format settings, Endianness : Big
Codec ID : A_AC3
Duration : 2 h 8 min
Bit rate mode : Constant
Bit rate : 192 kb/s
Channel(s) : 2 channels
Channel positions : Front: L R
Sampling rate : 48.0 kHz
Frame rate : 31.250 FPS (1536 SPF)
Bit depth : 16 bits
Compression mode : Lossy
Delay relative to video : 28 ms
Stream size : 177 MiB (4%)
Title : 48 KHz, AC3, 2 ch ~192 Kbps - AVO [Визгунов]
Language : Russian
Service kind : Complete Main
Default : No
Forced : No
Statistics Tags Issue : mkvmerge v15.0.0 ('Duel with the Devil') 64-bit 2017-09-08 06:34:33 / mkvmerge v15.0.0 ('Duel with the Devil') 64-bit 2017-09-08 06:34:33 / UTC 2017-09-07T01:31:04Z
FromStats_BitRate : 192000
FromStats_Duration : 02:08:40.224000000
FromStats_FrameCount : 241257
FromStats_StreamSize : 185285376
Audio #6
ID : 7
Format : AC-3
Format/Info : Audio Coding 3
Format settings, Endianness : Big
Codec ID : A_AC3
Duration : 2 h 8 min
Bit rate mode : Constant
Bit rate : 448 kb/s
Channel(s) : 6 channels
Channel positions : Front: L C R, Side: L R, LFE
Sampling rate : 48.0 kHz
Frame rate : 31.250 FPS (1536 SPF)
Bit depth : 16 bits
Compression mode : Lossy
Delay relative to video : 37 ms
Stream size : 412 MiB (9%)
Title : 48 KHz, AC3, 6 ch ~448 Kbps - Original
Language : English
Service kind : Complete Main
Default : No
Forced : No
Statistics Tags Issue : mkvmerge v15.0.0 ('Duel with the Devil') 64-bit 2017-09-08 06:34:33 / mkvmerge v15.0.0 ('Duel with the Devil') 64-bit 2017-09-08 06:34:33 / UTC 2017-09-07T01:31:04Z
FromStats_BitRate : 448000
FromStats_Duration : 02:08:40.320000000
FromStats_FrameCount : 241260
FromStats_StreamSize : 432337920
Text #1
ID : 8
Format : ASS
Codec ID : S_TEXT/ASS
Codec ID/Info : Advanced Sub Station Alpha
Compression mode : Lossless
Language : Russian
Default : No
Forced : No
Statistics Tags Issue : mkvmerge v15.0.0 ('Duel with the Devil') 64-bit 2017-09-08 06:34:33 / mkvmerge v15.0.0 ('Duel with the Devil') 64-bit 2017-09-08 06:34:33 / UTC 2017-09-07T01:31:04Z
FromStats_BitRate : 111
FromStats_Duration : 02:00:30.394000000
FromStats_FrameCount : 1055
FromStats_StreamSize : 100708
Text #2
ID : 9
Format : ASS
Codec ID : S_TEXT/ASS
Codec ID/Info : Advanced Sub Station Alpha
Compression mode : Lossless
Language : Russian
Default : No
Forced : No
Statistics Tags Issue : mkvmerge v15.0.0 ('Duel with the Devil') 64-bit 2017-09-08 06:34:33 / mkvmerge v15.0.0 ('Duel with the Devil') 64-bit 2017-09-08 06:34:33 / UTC 2017-09-07T01:31:04Z
FromStats_BitRate : 108
FromStats_Duration : 01:59:51.230000000
FromStats_FrameCount : 1095
FromStats_StreamSize : 97320
Text #3
ID : 10
Format : ASS
Codec ID : S_TEXT/ASS
Codec ID/Info : Advanced Sub Station Alpha
Compression mode : Lossless
Language : Russian
Default : No
Forced : No
Statistics Tags Issue : mkvmerge v15.0.0 ('Duel with the Devil') 64-bit 2017-09-08 06:34:33 / mkvmerge v15.0.0 ('Duel with the Devil') 64-bit 2017-09-08 06:34:33 / UTC 2017-09-07T01:31:04Z
FromStats_BitRate : 132
FromStats_Duration : 02:01:06.993000000
FromStats_FrameCount : 1487
FromStats_StreamSize : 120695
Text #4
ID : 11
Format : ASS
Codec ID : S_TEXT/ASS
Codec ID/Info : Advanced Sub Station Alpha
Compression mode : Lossless
Language : English
Default : No
Forced : No
Statistics Tags Issue : mkvmerge v15.0.0 ('Duel with the Devil') 64-bit 2017-09-08 06:34:33 / mkvmerge v15.0.0 ('Duel with the Devil') 64-bit 2017-09-08 06:34:33 / UTC 2017-09-07T01:31:04Z
FromStats_BitRate : 75
FromStats_Duration : 01:59:51.270000000
FromStats_FrameCount : 1203
FromStats_StreamSize : 68270
Text #5
ID : 12
Format : ASS
Codec ID : S_TEXT/ASS
Codec ID/Info : Advanced Sub Station Alpha
Compression mode : Lossless
Language : English
Default : No
Forced : No
Statistics Tags Issue : mkvmerge v15.0.0 ('Duel with the Devil') 64-bit 2017-09-08 06:34:33 / mkvmerge v15.0.0 ('Duel with the Devil') 64-bit 2017-09-08 06:34:33 / UTC 2017-09-07T01:31:04Z
FromStats_BitRate : 88
FromStats_Duration : 02:01:14.732000000
FromStats_FrameCount : 1433
FromStats_StreamSize : 80448
Menu
00:00:00.000 : :Isla Sorna (Main Titles)
00:04:13.587 : :The Dinosaur Guy
00:08:38.309 : :Our Last Chance
00:16:11.929 : :The Doctor's Daughter
00:21:43.135 : :The Lost World
00:33:22.459 : :Peter's Little Camping Trip
00:41:48.798 : :The Backup Plan
00:47:58.000 : :The Baby Rex
00:53:40.592 : :Mommy's Very Angry
01:04:46.674 : :Eddie Meets the Folks
01:12:59.709 : :Death & Dieter Stark
01:20:47.885 : :The T-Rex Intrudes
01:26:18.965 : :Lurkers in the Long Grass
01:31:53.383 : :The Welcoming Committee
01:42:23.638 : :The Death Ship
01:50:52.646 : :Taking the Kid
01:52:13.936 : :Rampage
01:58:10.875 : :The Crucial Shot
01:59:51.601 : :Life Will Find a Way
02:01:56.434 : :End Titles

Скриншоты

Парк Юрского периода 3 (2001)

Скрытый текст


Оригинальное название: Jurassic Park 3
Режиссер: Джо Джонстон
Год выпуска: 2001
Страна: США
Жанр: фантастика, боевик, триллер, приключения
Продолжительность: 01:32:20
Перевод: Дублированный, профессиональный многоголосый, авторский одноголосый.
Cубтитры: Русские, английские
В ролях: Сэм Нил, Уильям Х. Мэйси, Теа Леони, Алессандро Нивола, Тревор Морган, Майкл Джитер, Джон Дил, Брюс А. Янг, Лора Дерн, Тейлор Николс.
Описание: Герой Сэма Нила, палеонтолог Алан Грант, принимает предложение состоятельного предпринимателя совершить обзорную экскурсию над печально знаменитым островом Сорна на специально нанятом самолете. Мог ли доктор Грант предполагать, что страшная, непредвиденная катастрофа снова заставит его столкнуться со свирепыми плотоядными существами из прошлого?!
Более того, с момента ужасных событий картины «Парк Юрского периода» динозавры стали хитрее, сильнее и несоизмеримо опасней. Начинается новая, стремительная и жуткая гонка на выживание, в сравнении с которой все прошлые похождения доктора Гранта — лишь детские игрушки!

Файл
Кодек: h.264
Качество: BDRip-AVC
Видео: MPEG-4, 1080x584, 23.976 fps ~3576 kbps
Звук:
1) 48 KHz, AC3, 6 ch ~512 Kbps - Dub [Blu-ray CEE]
2) 48 KHz, AC3, 6 ch ~384 Kbps - MVO [Киномания]
3) 48 KHz, AC3, 6 ch ~384 Kbps - AVO [Гаврилов]
4) 48 KHz, AC3, 6 ch ~448 Kbps - AVO [Живов]
5) 48 KHz, AC3, 2 ch ~192 Kbps - AVO [Визгунов]
6) 48 KHz, AC3, 2 ch ~192 Kbps - AVO [Дольский]
7) 48 KHz, AC3, 6 ch ~512 Kbps - Original
Media Info:
Скрытый текстGeneral
Unique ID : 172335718662694035279829084451818329825 (0x81A6A6F06B2D7ED6858ED14B534A56E1)
Complete name : M:VideoПарк Юрского периода - Антология [1993-2015]3.Парк Юрского периода 3 (2001).mkv
Format : Matroska
Format version : Version 4 / Version 2
File size : 4.03 GiB
Duration : 1 h 32 min
Overall bit rate : 6 247 kb/s
Movie name : Jurassic Park 3 (2001) BDRip-AVC от DrVampir
Encoded date : UTC 2017-09-10 07:12:42 / UTC 2017-09-08T23:05:26Z
Writing application : mkvmerge v15.0.0 ('Duel with the Devil') 64-bit
Writing library : libebml v1.3.5 + libmatroska v1.4.5 / Lavf57.7.2
Cover : Yes
Attachments : Cover.jpg
Video
ID : 1
Format : AVC
Format/Info : Advanced Video Codec
Format profile : High@L4.1
Format settings, CABAC : Yes
Format settings, RefFrames : 10 frames
Codec ID : V_MPEG4/ISO/AVC
Duration : 1 h 32 min
Bit rate : 3 576 kb/s
Width : 1 080 pixels
Height : 584 pixels
Display aspect ratio : 1.85:1
Frame rate mode : Constant
Frame rate : 23.976 (24000/1001) FPS
Color space : YUV
Chroma subsampling : 4:2:0
Bit depth : 8 bits
Scan type : Progressive
Bits/(Pixel*Frame) : 0.236
Stream size : 2.26 GiB (56%)
Title : MPEG-4, 1080x584, 23.976 fps ~3576 kbps
Writing library : x264 core 148 r2708 86b7198
Encoding settings : cabac=1 / ref=10 / deblock=1:-3:-2 / analyse=0x3:0x133 / me=umh / subme=11 / psy=1 / psy_rd=1.00:0.15 / mixed_ref=1 / me_range=48 / chroma_me=1 / trellis=2 / 8x8dct=1 / cqm=0 / deadzone=21,11 / fast_pskip=0 / chroma_qp_offset=-3 / threads=6 / lookahead_threads=1 / sliced_threads=0 / nr=0 / decimate=1 / interlaced=0 / bluray_compat=0 / constrained_intra=0 / bframes=16 / b_pyramid=2 / b_adapt=2 / b_bias=0 / direct=3 / weightb=1 / open_gop=0 / weightp=2 / keyint=240 / keyint_min=24 / scenecut=40 / intra_refresh=0 / rc_lookahead=80 / rc=2pass / mbtree=0 / bitrate=3576 / ratetol=1.0 / qcomp=0.70 / qpmin=0 / qpmax=69 / qpstep=4 / cplxblur=20.0 / qblur=0.5 / vbv_maxrate=62500 / vbv_bufsize=78125 / nal_hrd=none / filler=0 / ip_ratio=1.40 / pb_ratio=1.30 / aq=1:1.00
Language : English
Default : Yes
Forced : No
Color range : Limited
Color primaries : BT.709
Transfer characteristics : BT.709
Matrix coefficients : BT.709
Statistics Tags Issue : mkvmerge v15.0.0 ('Duel with the Devil') 64-bit 2017-09-10 07:12:42 / mkvmerge v15.0.0 ('Duel with the Devil') 64-bit 2017-09-10 07:12:42 / UTC 2017-09-08T23:05:26Z
FromStats_BitRate : 3573995
FromStats_Duration : 01:32:20.535000000
FromStats_FrameCount : 132840
FromStats_StreamSize : 2475231178
Audio #1
ID : 2
Format : AC-3
Format/Info : Audio Coding 3
Format settings, Endianness : Big
Codec ID : A_AC3
Duration : 1 h 32 min
Bit rate mode : Constant
Bit rate : 512 kb/s
Channel(s) : 6 channels
Channel positions : Front: L C R, Side: L R, LFE
Sampling rate : 48.0 kHz
Frame rate : 31.250 FPS (1536 SPF)
Bit depth : 16 bits
Compression mode : Lossy
Delay relative to video : 37 ms
Stream size : 338 MiB (8%)
Title : 48 KHz, AC3, 6 ch ~512 Kbps - Dub [Blu-ray CEE]
Language : Russian
Service kind : Complete Main
Default : Yes
Forced : No
Statistics Tags Issue : mkvmerge v15.0.0 ('Duel with the Devil') 64-bit 2017-09-10 07:12:42 / mkvmerge v15.0.0 ('Duel with the Devil') 64-bit 2017-09-10 07:12:42 / UTC 2017-09-08T23:05:26Z
FromStats_BitRate : 512000
FromStats_Duration : 01:32:20.512000000
FromStats_FrameCount : 173141
FromStats_StreamSize : 354592768
Audio #2
ID : 3
Format : AC-3
Format/Info : Audio Coding 3
Format settings, Endianness : Big
Codec ID : A_AC3
Duration : 1 h 32 min
Bit rate mode : Constant
Bit rate : 384 kb/s
Channel(s) : 6 channels
Channel positions : Front: L C R, Side: L R, LFE
Sampling rate : 48.0 kHz
Frame rate : 31.250 FPS (1536 SPF)
Bit depth : 16 bits
Compression mode : Lossy
Delay relative to video : 475 ms
Stream size : 254 MiB (6%)
Title : 48 KHz, AC3, 6 ch ~384 Kbps - MVO [Киномания]
Language : Russian
Service kind : Complete Main
Default : No
Forced : No
Statistics Tags Issue : mkvmerge v15.0.0 ('Duel with the Devil') 64-bit 2017-09-10 07:12:42 / mkvmerge v15.0.0 ('Duel with the Devil') 64-bit 2017-09-10 07:12:42 / UTC 2017-09-08T23:05:26Z
FromStats_BitRate : 384000
FromStats_Duration : 01:32:17.888000000
FromStats_FrameCount : 173059
FromStats_StreamSize : 265818624
Audio #3
ID : 4
Format : AC-3
Format/Info : Audio Coding 3
Format settings, Endianness : Big
Codec ID : A_AC3
Duration : 1 h 32 min
Bit rate mode : Constant
Bit rate : 384 kb/s
Channel(s) : 6 channels
Channel positions : Front: L C R, Side: L R, LFE
Sampling rate : 48.0 kHz
Frame rate : 31.250 FPS (1536 SPF)
Bit depth : 16 bits
Compression mode : Lossy
Delay relative to video : 215 ms
Stream size : 254 MiB (6%)
Title : 48 KHz, AC3, 6 ch ~384 Kbps - AVO [Гаврилов]
Language : Russian
Service kind : Complete Main
Default : No
Forced : No
Statistics Tags Issue : mkvmerge v15.0.0 ('Duel with the Devil') 64-bit 2017-09-10 07:12:42 / mkvmerge v15.0.0 ('Duel with the Devil') 64-bit 2017-09-10 07:12:42 / UTC 2017-09-08T23:05:26Z
FromStats_BitRate : 384000
FromStats_Duration : 01:32:11.360000000
FromStats_FrameCount : 172855
FromStats_StreamSize : 265505280
Audio #4
ID : 5
Format : AC-3
Format/Info : Audio Coding 3
Format settings, Endianness : Big
Codec ID : A_AC3
Duration : 1 h 32 min
Bit rate mode : Constant
Bit rate : 448 kb/s
Channel(s) : 6 channels
Channel positions : Front: L C R, Side: L R, LFE
Sampling rate : 48.0 kHz
Frame rate : 31.250 FPS (1536 SPF)
Bit depth : 16 bits
Compression mode : Lossy
Delay relative to video : 768 ms
Stream size : 296 MiB (7%)
Title : 48 KHz, AC3, 6 ch ~448 Kbps - AVO [Живов]
Language : Russian
Service kind : Complete Main
Default : No
Forced : No
Statistics Tags Issue : mkvmerge v15.0.0 ('Duel with the Devil') 64-bit 2017-09-10 07:12:42 / mkvmerge v15.0.0 ('Duel with the Devil') 64-bit 2017-09-10 07:12:42 / UTC 2017-09-08T23:05:26Z
FromStats_BitRate : 448000
FromStats_Duration : 01:32:18.336000000
FromStats_FrameCount : 173073
FromStats_StreamSize : 310146816
Audio #5
ID : 6
Format : AC-3
Format/Info : Audio Coding 3
Format settings, Endianness : Big
Codec ID : A_AC3
Duration : 1 h 32 min
Bit rate mode : Constant
Bit rate : 192 kb/s
Channel(s) : 2 channels
Channel positions : Front: L R
Sampling rate : 48.0 kHz
Frame rate : 31.250 FPS (1536 SPF)
Bit depth : 16 bits
Compression mode : Lossy
Stream size : 127 MiB (3%)
Title : 48 KHz, AC3, 2 ch ~192 Kbps - AVO [Визгунов]
Language : Russian
Service kind : Complete Main
Default : No
Forced : No
Statistics Tags Issue : mkvmerge v15.0.0 ('Duel with the Devil') 64-bit 2017-09-10 07:12:42 / mkvmerge v15.0.0 ('Duel with the Devil') 64-bit 2017-09-10 07:12:42 / UTC 2017-09-08T23:05:26Z
FromStats_BitRate : 192000
FromStats_Duration : 01:32:11.008000000
FromStats_FrameCount : 172844
FromStats_StreamSize : 132744192
Audio #6
ID : 7
Format : AC-3
Format/Info : Audio Coding 3
Format settings, Endianness : Big
Codec ID : A_AC3
Duration : 1 h 32 min
Bit rate mode : Constant
Bit rate : 192 kb/s
Channel(s) : 2 channels
Channel positions : Front: L R
Sampling rate : 48.0 kHz
Frame rate : 31.250 FPS (1536 SPF)
Bit depth : 16 bits
Compression mode : Lossy
Stream size : 127 MiB (3%)
Title : 48 KHz, AC3, 2 ch ~192 Kbps - AVO [Дольский]
Language : Russian
Service kind : Complete Main
Default : No
Forced : No
Statistics Tags Issue : mkvmerge v15.0.0 ('Duel with the Devil') 64-bit 2017-09-10 07:12:42 / mkvmerge v15.0.0 ('Duel with the Devil') 64-bit 2017-09-10 07:12:42 / UTC 2017-09-08T23:05:26Z
FromStats_BitRate : 192000
FromStats_Duration : 01:32:11.008000000
FromStats_FrameCount : 172844
FromStats_StreamSize : 132744192
Audio #7
ID : 8
Format : AC-3
Format/Info : Audio Coding 3
Format settings, Endianness : Big
Codec ID : A_AC3
Duration : 1 h 32 min
Bit rate mode : Constant
Bit rate : 512 kb/s
Channel(s) : 6 channels
Channel positions : Front: L C R, Side: L R, LFE
Sampling rate : 48.0 kHz
Frame rate : 31.250 FPS (1536 SPF)
Bit depth : 16 bits
Compression mode : Lossy
Delay relative to video : 37 ms
Stream size : 338 MiB (8%)
Title : 48 KHz, AC3, 6 ch ~512 Kbps - Original
Language : English
Service kind : Complete Main
Default : No
Forced : No
Statistics Tags Issue : mkvmerge v15.0.0 ('Duel with the Devil') 64-bit 2017-09-10 07:12:42 / mkvmerge v15.0.0 ('Duel with the Devil') 64-bit 2017-09-10 07:12:42 / UTC 2017-09-08T23:05:26Z
FromStats_BitRate : 512000
FromStats_Duration : 01:32:20.512000000
FromStats_FrameCount : 173141
FromStats_StreamSize : 354592768
Text #1
ID : 9
Format : PGS
Muxing mode : zlib
Codec ID : S_HDMV/PGS
Codec ID/Info : Picture based subtitle format used on BDs/HD-DVDs
Language : Russian
Default : No
Forced : No
Statistics Tags Issue : mkvmerge v15.0.0 ('Duel with the Devil') 64-bit 2017-09-10 07:12:42 / mkvmerge v15.0.0 ('Duel with the Devil') 64-bit 2017-09-10 07:12:42 / UTC 2017-09-08T23:05:26Z
FromStats_BitRate : 160
FromStats_Duration : 01:31:31.027000000
FromStats_FrameCount : 12
FromStats_StreamSize : 110421
Text #2
ID : 10
Format : PGS
Muxing mode : zlib
Codec ID : S_HDMV/PGS
Codec ID/Info : Picture based subtitle format used on BDs/HD-DVDs
Language : Russian
Default : No
Forced : No
Statistics Tags Issue : mkvmerge v15.0.0 ('Duel with the Devil') 64-bit 2017-09-10 07:12:42 / mkvmerge v15.0.0 ('Duel with the Devil') 64-bit 2017-09-10 07:12:42 / UTC 2017-09-08T23:05:26Z
FromStats_BitRate : 61644
FromStats_Duration : 01:32:05.937000000
FromStats_FrameCount : 2848
FromStats_StreamSize : 42580238
Text #3
ID : 11
Format : PGS
Muxing mode : zlib
Codec ID : S_HDMV/PGS
Codec ID/Info : Picture based subtitle format used on BDs/HD-DVDs
Language : English
Default : No
Forced : No
Statistics Tags Issue : mkvmerge v15.0.0 ('Duel with the Devil') 64-bit 2017-09-10 07:12:42 / mkvmerge v15.0.0 ('Duel with the Devil') 64-bit 2017-09-10 07:12:42 / UTC 2017-09-08T23:05:26Z
FromStats_BitRate : 29507
FromStats_Duration : 01:22:48.714000000
FromStats_FrameCount : 1898
FromStats_StreamSize : 18327098
Text #4
ID : 12
Format : PGS
Muxing mode : zlib
Codec ID : S_HDMV/PGS
Codec ID/Info : Picture based subtitle format used on BDs/HD-DVDs
Language : English
Default : No
Forced : No
Statistics Tags Issue : mkvmerge v15.0.0 ('Duel with the Devil') 64-bit 2017-09-10 07:12:42 / mkvmerge v15.0.0 ('Duel with the Devil') 64-bit 2017-09-10 07:12:42 / UTC 2017-09-08T23:05:26Z
FromStats_BitRate : 71526
FromStats_Duration : 01:28:00.859000000
FromStats_FrameCount : 2894
FromStats_StreamSize : 47215321
Menu
00:00:00.000 : :Parasail Into Peril
00:04:11.877 : :The Dinosaur Man
00:12:43.805 : :The Kirbys' Offer
00:17:26.796 : :Unhappy Landings
00:19:56.821 : :The Spinosaurus
00:26:27.377 : :Duel of the Dinosaurs
00:27:35.696 : :The Lost Boys
00:32:37.831 : :He's Alive
00:36:13.046 : :The Nest
00:40:11.993 : :Raptors
00:44:32.295 : :Grant's Rescuer
00:53:06.517 : :Family Reunion
00:56:48.614 : :The Best Intentions
00:58:55.574 : :The Birdcage
01:03:00.694 : :Billy's Gamble
01:11:44.759 : :A Call for Help
01:14:53.406 : :A Father's Courage
01:18:44.220 : :Call of the Raptor
01:21:29.802 : :Going Home
01:24:28.230 : :End Titles

Скриншоты

Мир Юрского периода (2015)

Скрытый текст


Оригинальное название: Jurassic World
Режиссер: Колин Треворроу
Год выпуска: 2015
Страна: США
Жанр: фантастика, приключения, боевик
Продолжительность: 02:04:21
Перевод: Дублированный, авторский одноголосый.
Cубтитры: Русские, английские
В ролях: Крис Пратт (Owen), Брайс Даллас Ховард (Claire), Ник Дж. Робинсон (Zach), Тай Симпкинс (Gray), Винсент Д’Онофрио (Hoskins), Ирфан Кхан (Masrani), Омар Си (Barry), Б.Д. Вонг (Dr. Henry Wu), Джейк Джонсон (Lowery), Джуди Грир (Karen), Кэти МакГрат (Zara), Лорен Лапкус (Vivian).
Описание: Тысячи людей спешат увидеть Мир Юрского периода, но безопасное на первый взгляд развлечение может обернуться угрозой для их жизней…

Файл
Кодек: h.264
Качество: BDRip-AVC
Видео: MPEG-4, 1080x540, 23.976 fps ~3072 kbps
Звук:
1) 48 KHz, AC3, 6 ch ~640 Kbps - Dub [Blu-ray EUR]
2) 48 KHz, AC3, 6 ch ~640 Kbps - AVO [Гаврилов]
3) 48 KHz, AC3, 6 ch ~640 Kbps - Original
Media Info:
Скрытый текстGeneral
Unique ID : 241655252964599698528041224604493739315 (0xB5CD1BD9AE5A6F8581F65A33C85AF533)
Complete name : M:VideoПарк Юрского периода - Антология [1993-2015]4.Мир Юрского периода (2015).mkv
Format : Matroska
Format version : Version 4 / Version 2
File size : 4.35 GiB
Duration : 2 h 4 min
Overall bit rate : 5 006 kb/s
Movie name : Jurassic World (2015)
Encoded date : UTC 2017-06-25 13:28:34 / UTC 2017-06-17T23:33:19Z
Writing application : mkvmerge v12.0.0 ('Trust / Lust') 64bit
Writing library : libebml v1.3.4 + libmatroska v1.4.5 / Lavf57.7.2
Cover : Yes
Attachments : Cover.png
Video
ID : 1
Format : AVC
Format/Info : Advanced Video Codec
Format profile : High@L4.1
Format settings, CABAC : Yes
Format settings, RefFrames : 12 frames
Codec ID : V_MPEG4/ISO/AVC
Duration : 2 h 4 min
Bit rate : 3 072 kb/s
Width : 1 080 pixels
Height : 540 pixels
Display aspect ratio : 2.000
Frame rate mode : Constant
Frame rate : 23.976 (24000/1001) FPS
Color space : YUV
Chroma subsampling : 4:2:0
Bit depth : 8 bits
Scan type : Progressive
Bits/(Pixel*Frame) : 0.220
Stream size : 2.59 GiB (60%)
Title : MPEG-4, 1080x540, 23.976 fps ~3072 kbps
Writing library : x264 core 148 r2708 86b7198
Encoding settings : cabac=1 / ref=12 / deblock=1:-3:-2 / analyse=0x3:0x133 / me=umh / subme=11 / psy=1 / psy_rd=1.00:0.15 / mixed_ref=1 / me_range=48 / chroma_me=1 / trellis=2 / 8x8dct=1 / cqm=0 / deadzone=21,11 / fast_pskip=0 / chroma_qp_offset=-3 / threads=6 / lookahead_threads=1 / sliced_threads=0 / nr=0 / decimate=1 / interlaced=0 / bluray_compat=0 / constrained_intra=0 / bframes=16 / b_pyramid=2 / b_adapt=2 / b_bias=0 / direct=3 / weightb=1 / open_gop=0 / weightp=2 / keyint=240 / keyint_min=24 / scenecut=40 / intra_refresh=0 / rc_lookahead=80 / rc=2pass / mbtree=0 / bitrate=3072 / ratetol=1.0 / qcomp=0.70 / qpmin=0 / qpmax=69 / qpstep=4 / cplxblur=20.0 / qblur=0.5 / vbv_maxrate=62500 / vbv_bufsize=78125 / nal_hrd=none / filler=0 / ip_ratio=1.40 / pb_ratio=1.30 / aq=1:1.00
Language : English
Default : Yes
Forced : No
Color range : Limited
Color primaries : BT.709
Transfer characteristics : BT.709
Matrix coefficients : BT.709
Statistics Tags Issue : mkvmerge v12.0.0 ('Trust / Lust') 64bit 2017-06-25 13:28:34 / mkvmerge v12.0.0 ('Trust / Lust') 64bit 2017-06-25 13:28:34 / UTC 2017-06-17T23:33:19Z
FromStats_BitRate : 3064136
FromStats_Duration : 02:04:21.121000000
FromStats_FrameCount : 178888
FromStats_StreamSize : 2857736683
Audio #1
ID : 2
Format : AC-3
Format/Info : Audio Coding 3
Format settings, Endianness : Big
Codec ID : A_AC3
Duration : 2 h 4 min
Bit rate mode : Constant
Bit rate : 640 kb/s
Channel(s) : 6 channels
Channel positions : Front: L C R, Side: L R, LFE
Sampling rate : 48.0 kHz
Frame rate : 31.250 FPS (1536 SPF)
Bit depth : 16 bits
Compression mode : Lossy
Delay relative to video : -5 ms
Stream size : 569 MiB (13%)
Title : 48 KHz, AC3, 6 ch ~640 Kbps - Dub [Blu-ray EUR]
Language : Russian
Service kind : Complete Main
Default : Yes
Forced : No
Statistics Tags Issue : mkvmerge v12.0.0 ('Trust / Lust') 64bit 2017-06-25 13:28:34 / mkvmerge v12.0.0 ('Trust / Lust') 64bit 2017-06-25 13:28:34 / UTC 2017-06-17T23:33:19Z
FromStats_BitRate : 640000
FromStats_Duration : 02:04:21.120000000
FromStats_FrameCount : 233160
FromStats_StreamSize : 596889600
Audio #2
ID : 3
Format : AC-3
Format/Info : Audio Coding 3
Format settings, Endianness : Big
Codec ID : A_AC3
Duration : 2 h 4 min
Bit rate mode : Constant
Bit rate : 640 kb/s
Channel(s) : 6 channels
Channel positions : Front: L C R, Side: L R, LFE
Sampling rate : 48.0 kHz
Frame rate : 31.250 FPS (1536 SPF)
Bit depth : 16 bits
Compression mode : Lossy
Stream size : 569 MiB (13%)
Title : 48 KHz, AC3, 6 ch ~640 Kbps - AVO [Гаврилов]
Language : Russian
Service kind : Complete Main
Default : No
Forced : No
Statistics Tags Issue : mkvmerge v12.0.0 ('Trust / Lust') 64bit 2017-06-25 13:28:34 / mkvmerge v12.0.0 ('Trust / Lust') 64bit 2017-06-25 13:28:34 / UTC 2017-06-17T23:33:19Z
FromStats_BitRate : 640000
FromStats_Duration : 02:04:21.152000000
FromStats_FrameCount : 233161
FromStats_StreamSize : 596892160
Audio #3
ID : 4
Format : AC-3
Format/Info : Audio Coding 3
Format settings, Endianness : Big
Codec ID : A_AC3
Duration : 2 h 4 min
Bit rate mode : Constant
Bit rate : 640 kb/s
Channel(s) : 6 channels
Channel positions : Front: L C R, Side: L R, LFE
Sampling rate : 48.0 kHz
Frame rate : 31.250 FPS (1536 SPF)
Bit depth : 16 bits
Compression mode : Lossy
Delay relative to video : -5 ms
Stream size : 569 MiB (13%)
Title : 48 KHz, AC3, 6 ch ~640 Kbps - Original
Language : English
Service kind : Complete Main
Default : No
Forced : No
Statistics Tags Issue : mkvmerge v12.0.0 ('Trust / Lust') 64bit 2017-06-25 13:28:34 / mkvmerge v12.0.0 ('Trust / Lust') 64bit 2017-06-25 13:28:34 / UTC 2017-06-17T23:33:19Z
FromStats_BitRate : 640000
FromStats_Duration : 02:04:21.120000000
FromStats_FrameCount : 233160
FromStats_StreamSize : 596889600
Text #1
ID : 5
Format : PGS
Muxing mode : zlib
Codec ID : S_HDMV/PGS
Codec ID/Info : Picture based subtitle format used on BDs/HD-DVDs
Language : Russian
Default : No
Forced : No
Statistics Tags Issue : mkvmerge v12.0.0 ('Trust / Lust') 64bit 2017-06-25 13:28:34 / mkvmerge v12.0.0 ('Trust / Lust') 64bit 2017-06-25 13:28:34 / UTC 2017-06-17T23:33:19Z
FromStats_BitRate : 8462
FromStats_Duration : 02:02:12.700000000
FromStats_FrameCount : 2454
FromStats_StreamSize : 7756239
Text #2
ID : 6
Format : PGS
Muxing mode : zlib
Codec ID : S_HDMV/PGS
Codec ID/Info : Picture based subtitle format used on BDs/HD-DVDs
Language : Russian
Default : No
Forced : No
Statistics Tags Issue : mkvmerge v12.0.0 ('Trust / Lust') 64bit 2017-06-25 13:28:34 / mkvmerge v12.0.0 ('Trust / Lust') 64bit 2017-06-25 13:28:34 / UTC 2017-06-17T23:33:19Z
FromStats_BitRate : 109
FromStats_Duration : 02:00:01.569000000
FromStats_FrameCount : 38
FromStats_StreamSize : 98353
Text #3
ID : 7
Format : PGS
Muxing mode : zlib
Codec ID : S_HDMV/PGS
Codec ID/Info : Picture based subtitle format used on BDs/HD-DVDs
Language : English
Default : No
Forced : No
Statistics Tags Issue : mkvmerge v12.0.0 ('Trust / Lust') 64bit 2017-06-25 13:28:34 / mkvmerge v12.0.0 ('Trust / Lust') 64bit 2017-06-25 13:28:34 / UTC 2017-06-17T23:33:19Z
FromStats_BitRate : 11126
FromStats_Duration : 01:53:44.109000000
FromStats_FrameCount : 2989
FromStats_StreamSize : 9490829
Menu
00:00:00.000 : :Chapter 1
00:06:59.169 : :Chapter 2
00:11:01.828 : :Chapter 3
00:18:28.441 : :Chapter 4
00:25:34.867 : :Chapter 5
00:31:20.837 : :Chapter 6
00:39:23.862 : :Chapter 7
00:44:07.854 : :Chapter 8
00:48:57.226 : :Chapter 9
00:55:51.139 : :Chapter 10
01:01:21.344 : :Chapter 11
01:09:50.561 : :Chapter 12
01:15:25.479 : :Chapter 13
01:23:51.860 : :Chapter 14
01:30:14.701 : :Chapter 15
01:36:45.425 : :Chapter 16
01:41:15.653 : :Chapter 17
01:47:35.282 : :Chapter 18
01:53:06.029 : :Chapter 19
01:55:37.639 : :Chapter 20

Скриншоты

Вы не можете начинать темы
Вы не можете отвечать на сообщения
Вы не можете редактировать свои сообщения
Вы не можете удалять свои сообщения
Вы не можете голосовать в опросах
Вы не можете прикреплять файлы к сообщениям
Вы можете скачивать файлы
!ВНИМАНИЕ!

Сайт не предоставляет электронные версии произведений, а занимается лишь коллекционированием и каталогизацией ссылок, присылаемых и публикуемых на форуме нашими читателями. Если вы являетесь правообладателем какого-либо представленного материала и не желаете, чтобы ссылка на него находилась в нашем каталоге, свяжитесь с нами, и мы незамедлительно удалим ее. Файлы для обмена на трекере предоставлены пользователями сайта, и администрация не несет ответственности за их содержание. Просьба не заливать файлы, защищенные авторскими правами, а также файлы нелегального содержания!

Искали программы, игры, дополнения, музыка mp3, аниме, аудио книги, журналы? Добро пожаловать на свободный торрент трекер Torrents, у нас можно скачать бесплатно, без смс и регистрации и прочих ограничений лучшие, отборные сборки программ, игр. Скачать торрентом не составит труда даже не опытному пользователю. Раздачи ежедневно обновляются, только лучшие и качественные раздачи, подробные описания и скриншоты. Огромная коллекция программ для работы со звуком, графикой, дизайном, а так же множество плагинов и инструментов к ним с подробной инструкцией и рекомендациями. Прошивки для навигаторов, карты. Разнообразные игры, для Windows, Linux. В коллекцие есть и старые игры любых жанров, Rpg, Action, Shooter, strategy Множество дополнений, модификаций, сценариев для популярных игр в жанре экш, рпг, гонки, стратегии, логические игры. Множество аддонов и сценариев для Microsoft Flight Simulator Большая коллекция книг, учебников. Если нет возможности купить печатное издание - смело скачивайте цифровую версию книги или, быть может, журнала. Не любите читать - можно загрузить бесплатно аудикнигу. Для веб дизайнеров и программистов так же найдется множество специализированного софта, таких как: редакторы с подсветкой, среды программирования, компоненты, системы управления базами данных, разнообразные скрипты и шаблоны. Не так давно у нас появился материал для автолюбителей и владельцев мото - оригинальные и неоригинальные каталоги запчастей, книги и журналы по ремонту и обслуживанию, видеоуроки, статьи по чип тюнингу, прошивкам. Процедура получения контента элементарная, достаточно просто скачать торрент файл и добавить его в загрузку в вашем торрент клиенте. Если у вас нет специального торрент клиента, вы можете его скачать у нас.