Чжун Куй: Снежная дева и тёмный кристалл / Zhong Kui Snow Girl and the Dark Crystal (2015) BDRip 720р от ТВОЙ_ТРЕКЕР.РУ | L2 

Цитировать

Информация о фильме
Название: Чжун Куй: Снежная дева и тёмный кристалл
Оригинальное название: Zhong Kui Snow Girl and the Dark Crystal
Год выхода: 2015
Жанр: Фэнтези
Режиссер: Питер Пау, Чжао Тайню
В ролях: Чэнь Кунь, Ли Бинбин, Уинстон Чао, Бэйэр Бао, Джайк Цзюньи, Хуань Хуан, Вэньбо Ло, Иди Хоу, Maidina, Чжии Жэнь
О фильме:
Молодой человек Чжун Куй — в поздней китайской мифологии повелитель демонов, а к началу эпохи Тан Чжун Куй превратился из божества, оберегающего от злых сил, в божество, усмиряющее и истребляющее демонов — наделённый таинственными силами вынужден сражаться с духами Неба, Земли и Ада ради спасения своих соотечественников и любимой женщины…

Страна: Китай, Гонконг, США
Студия: Desen International Media, Enlight Pictures, K Pictures Co., Village Roadshow Pictures Asia, Warner Bros. (F.E.), Wu's Entertainment Co.
Продолжительность: 01:57:48
Перевод: Любительский (двухголосый закадровый)
Файл
Кодек: H.264
Качество: BDRip 720р от SuperMin
Видео: 1280x536 (2.40:1), 3249 kbps, 23.976 fps
Звук: Русский (AC-3, 6ch, 448 kbps)
Субтитры: английские (форс.)

MI

x264 [info]: frame I:1422 Avg QP:17.29 size: 97584
x264 [info]: frame P:39681 Avg QP:18.81 size: 35038
x264 [info]: frame B:128406 Avg QP:22.12 size: 10449
x264 [info]: consecutive B-frames: 2.7% 3.0% 12.7% 20.3% 18.5% 38.7% 2.7% 1.4%
x264 [total]: encoded 169509 frames, 6.43 fps, 3248.52 kb/s
General
Unique ID : 177707422037430395514003243825201778423 (0x85B1345D01CD157983EFD207F6858EF7)
Complete name : F:ФИЛЬМЫЧжун Куй - Снежная дева и тёмный кристалл.2015.x264.BDRip.720p.DVO.mkv
Format : Matroska
Format version : Version 4 / Version 2
File size : 3.04 GiB
Duration : 1 h 57 min
Overall bit rate : 3 698 kb/s
Movie name : Чжун Куй: Снежная дева и тёмный кристалл / Zhong Kui Snow Girl and the Dark Crystal (2015) - #LORDKILL#
Encoded date : UTC 2017-09-01 14:34:58
Writing application : mkvmerge v9.5.0 ('Quiet Fire') 64bit
Writing library : libebml v1.3.4 + libmatroska v1.4.5
Video
ID : 1
Format : AVC
Format/Info : Advanced Video Codec
Format profile : High@L4.1
Format settings, CABAC : Yes
Format settings, ReFrames : 11 frames
Codec ID : V_MPEG4/ISO/AVC
Duration : 1 h 57 min
Bit rate : 3 249 kb/s
Width : 1 280 pixels
Height : 536 pixels
Display aspect ratio : 2.40:1
Frame rate mode : Constant
Frame rate : 23.976 (24000/1001) FPS
Color space : YUV
Chroma subsampling : 4:2:0
Bit depth : 8 bits
Scan type : Progressive
Bits/(Pixel*Frame) : 0.197
Stream size : 2.67 GiB (88%)
Writing library : x264 core 146 r2538 121396c
Encoding settings : cabac=1 / ref=11 / deblock=1:-3:-3 / analyse=0x3:0x113 / me=umh / subme=11 / psy=1 / psy_rd=1.00:0.10 / mixed_ref=1 / me_range=64 / chroma_me=1 / trellis=2 / 8x8dct=1 / cqm=0 / deadzone=21,11 / fast_pskip=0 / chroma_qp_offset=-3 / threads=12 / lookahead_threads=2 / sliced_threads=0 / nr=0 / decimate=1 / interlaced=0 / bluray_compat=0 / constrained_intra=0 / bframes=7 / b_pyramid=2 / b_adapt=2 / b_bias=0 / direct=1 / weightb=1 / open_gop=0 / weightp=2 / keyint=240 / keyint_min=23 / scenecut=40 / intra_refresh=0 / rc=crf / mbtree=0 / crf=19.0 / qcomp=0.60 / qpmin=0 / qpmax=69 / qpstep=4 / ip_ratio=1.40 / pb_ratio=1.30 / aq=1:1.00
Default : Yes
Forced : No
Audio
ID : 2
Format : AC-3
Format/Info : Audio Coding 3
Mode extension : CM (complete main)
Format settings, Endianness : Big
Codec ID : A_AC3
Duration : 1 h 57 min
Bit rate mode : Constant
Bit rate : 448 kb/s
Channel(s) : 6 channels
Channel positions : Front: L C R, Side: L R, LFE
Sampling rate : 48.0 kHz
Frame rate : 31.250 FPS (1536 spf)
Bit depth : 16 bits
Compression mode : Lossy
Stream size : 377 MiB (12%)
Title : Любительский (двухголосый закадровый)
Language : Russian
Default : Yes
Forced : No
Text
ID : 3
Format : UTF-8
Codec ID : S_TEXT/UTF8
Codec ID/Info : UTF-8 Plain Text
Duration : 1 h 47 min
Bit rate : 29 b/s
Count of elements : 699
Stream size : 23.6 KiB (0%)
Title : Forced
Language : English
Default : Yes
Forced : Yes
Menu
00:00:00.000 : en:00:00:00.000
00:07:21.750 : en:00:07:21.750
00:14:47.583 : en:00:14:47.583
00:24:51.333 : en:00:24:51.333
00:33:01.542 : en:00:33:01.542
00:41:41.458 : en:00:41:41.458
00:47:44.625 : en:00:47:44.625
00:55:15.833 : en:00:55:15.833
01:03:58.500 : en:01:03:58.500
01:15:14.542 : en:01:15:14.542
01:27:45.042 : en:01:27:45.042
01:36:38.792 : en:01:36:38.792
01:50:16.083 : en:01:50:16.083

Скриншоты

Вы не можете начинать темы
Вы не можете отвечать на сообщения
Вы не можете редактировать свои сообщения
Вы не можете удалять свои сообщения
Вы не можете голосовать в опросах
Вы не можете прикреплять файлы к сообщениям
Вы можете скачивать файлы
!ВНИМАНИЕ!

Сайт не предоставляет электронные версии произведений, а занимается лишь коллекционированием и каталогизацией ссылок, присылаемых и публикуемых на форуме нашими читателями. Если вы являетесь правообладателем какого-либо представленного материала и не желаете, чтобы ссылка на него находилась в нашем каталоге, свяжитесь с нами, и мы незамедлительно удалим ее. Файлы для обмена на трекере предоставлены пользователями сайта, и администрация не несет ответственности за их содержание. Просьба не заливать файлы, защищенные авторскими правами, а также файлы нелегального содержания!

Искали программы, игры, дополнения, музыка mp3, аниме, аудио книги, журналы? Добро пожаловать на свободный торрент трекер Torrents, у нас можно скачать бесплатно, без смс и регистрации и прочих ограничений лучшие, отборные сборки программ, игр. Скачать торрентом не составит труда даже не опытному пользователю. Раздачи ежедневно обновляются, только лучшие и качественные раздачи, подробные описания и скриншоты. Огромная коллекция программ для работы со звуком, графикой, дизайном, а так же множество плагинов и инструментов к ним с подробной инструкцией и рекомендациями. Прошивки для навигаторов, карты. Разнообразные игры, для Windows, Linux. В коллекцие есть и старые игры любых жанров, Rpg, Action, Shooter, strategy Множество дополнений, модификаций, сценариев для популярных игр в жанре экш, рпг, гонки, стратегии, логические игры. Множество аддонов и сценариев для Microsoft Flight Simulator Большая коллекция книг, учебников. Если нет возможности купить печатное издание - смело скачивайте цифровую версию книги или, быть может, журнала. Не любите читать - можно загрузить бесплатно аудикнигу. Для веб дизайнеров и программистов так же найдется множество специализированного софта, таких как: редакторы с подсветкой, среды программирования, компоненты, системы управления базами данных, разнообразные скрипты и шаблоны. Не так давно у нас появился материал для автолюбителей и владельцев мото - оригинальные и неоригинальные каталоги запчастей, книги и журналы по ремонту и обслуживанию, видеоуроки, статьи по чип тюнингу, прошивкам. Процедура получения контента элементарная, достаточно просто скачать торрент файл и добавить его в загрузку в вашем торрент клиенте. Если у вас нет специального торрент клиента, вы можете его скачать у нас.