Ультрамен Икс / Ultraman X / Сезон: 1 / (18 из 22) [2015, Япония, Фантастика, HDTVRip] [JAP+SUB, VO] 

Цитировать
Ультрамен Икс / Ultraman X
Год выпуска: 2015
Страна: Япония
Жанр: Фантастика
Продолжительность: 24:30
Перевод: Субтитры
Перевод 2: Любительский (одноголосый закадровый)
Режиссёр: Kiyotaka Taguchi
В ролях: Кенсуки Такаши, Акане Саканоуэ, Юшико Хасода, Укуэ Матсумото, Хаято Харада, Такеру, Шиаки Сеншимо, Сара Тсукуфумэ, Ю Камио.
Описание: После вспышки на солнце, событие было прозвано Ультра Вспышкой, появилось необычное сеяние в небе и загадочные существа, прозванные Спарк Куклами, которые были найдены на дне океана, материализовались в огромных монстров, которые сеют хаос и разрушение на Земле. Правительства мира создали спец. отряд по борьбе с этими монстрами под названием ЗИО. Через 15 лет молодой человек, Дайчи Озора, родители которого пропали во время Ультра Вспышки, слышит чей-то голос, попав под атаку монстра Дайчи превращается в Ультамена Икс, что бы: защитить тех кто ему дорог, разгадать тайну Ультра Вспышки и понять, почему Ультамен Икс выбрал именно его.
Ссылка на предыдущие и альтернативные раздачи: http://rutracker.org/forum/viewtopic.php?t=5151054
Сэмпл: http://multi-up.com/1174214
Качество: HDRip
Формат: AVI
Видео: AVC, 1280*720, (16:9) fps 30, 14000 (kbps)
Аудио: AAC, 48 (kHz), 2 (ch), 128 (kbps)
Субтитры: отключаемые
Реклама:
Отсуствует

Список серий

SE01-6

MediaInfo

Общее
Полное имя : C:\Users\Dreik\Videos\Озвученно\Ultraman X\SE01.mp4
Формат : MPEG-4
Профиль формата : Base Media / Version 2
Идентификатор кодека : mp42 (mp42/isom)
Размер файла : 2,16 Гбайт
Продолжительность : 24 м. 34 с.
Режим общего битрейта : Переменный
Общий поток : 12,6 Мбит/сек
Дата кодирования : UTC 2017-10-31 11:44:42
Дата пометки : UTC 2017-10-31 11:44:42
Видео
Идентификатор : 2
Формат : AVC
Формат/Информация : Advanced Video Codec
Профиль формата : High@L4
Настройки формата : CABAC / 2 Ref Frames
Параметр CABAC формата : Да
Параметр RefFrames формата : 2 кадра
Параметр GOP формата : M=2, N=15
Идентификатор кодека : avc1
Идентификатор кодека/Информация : Advanced Video Coding
Продолжительность : 24 м. 34 с.
Вид битрейта : Переменный
Битрейт : 12,4 Мбит/сек
Максимальный битрейт : 16,0 Мбит/сек
Ширина : 1280 пикселей
Высота : 720 пикселей
Соотношение сторон : 16:9
Режим частоты кадров : Постоянный
Частота кадров : 29,970 (30000/1001) кадров/сек
Цветовое пространство : YUV
Субдискретизация насыщенности : 4:2:0
Битовая глубина : 8 бит
Тип развёртки : Прогрессивная
Бит/(Пиксели*Кадры) : 0.450
Размер потока : 2,13 Гбайт (99%)
Язык : English
Дата кодирования : UTC 2017-10-31 11:44:42
Дата пометки : UTC 2017-10-31 11:44:42
Аудио
Идентификатор : 1
Формат : AAC
Формат/Информация : Advanced Audio Codec
Профиль формата : LC
Идентификатор кодека : mp4a-40-2
Продолжительность : 24 м. 34 с.
Вид битрейта : Постоянный
Битрейт : 128 Кбит/сек
Каналы : 2 канала
Расположение каналов : Front: L R
Частота : 48,0 КГц
Частота кадров : 46,875 кадров/сек (1024 SPF)
Метод сжатия : С потерями
Размер потока : 22,5 Мбайт (1%)
Язык : English
Дата кодирования : UTC 2017-10-31 11:44:42
Дата пометки : UTC 2017-10-31 11:44:42

Скриншоты

Вы не можете начинать темы
Вы не можете отвечать на сообщения
Вы не можете редактировать свои сообщения
Вы не можете удалять свои сообщения
Вы не можете голосовать в опросах
Вы не можете прикреплять файлы к сообщениям
Вы можете скачивать файлы
!ВНИМАНИЕ!

Сайт не предоставляет электронные версии произведений, а занимается лишь коллекционированием и каталогизацией ссылок, присылаемых и публикуемых на форуме нашими читателями. Если вы являетесь правообладателем какого-либо представленного материала и не желаете, чтобы ссылка на него находилась в нашем каталоге, свяжитесь с нами, и мы незамедлительно удалим ее. Файлы для обмена на трекере предоставлены пользователями сайта, и администрация не несет ответственности за их содержание. Просьба не заливать файлы, защищенные авторскими правами, а также файлы нелегального содержания!

Искали программы, игры, дополнения, музыка mp3, аниме, аудио книги, журналы? Добро пожаловать на свободный торрент трекер Torrents, у нас можно скачать бесплатно, без смс и регистрации и прочих ограничений лучшие, отборные сборки программ, игр. Скачать торрентом не составит труда даже не опытному пользователю. Раздачи ежедневно обновляются, только лучшие и качественные раздачи, подробные описания и скриншоты. Огромная коллекция программ для работы со звуком, графикой, дизайном, а так же множество плагинов и инструментов к ним с подробной инструкцией и рекомендациями. Прошивки для навигаторов, карты. Разнообразные игры, для Windows, Linux. В коллекцие есть и старые игры любых жанров, Rpg, Action, Shooter, strategy Множество дополнений, модификаций, сценариев для популярных игр в жанре экш, рпг, гонки, стратегии, логические игры. Множество аддонов и сценариев для Microsoft Flight Simulator Большая коллекция книг, учебников. Если нет возможности купить печатное издание - смело скачивайте цифровую версию книги или, быть может, журнала. Не любите читать - можно загрузить бесплатно аудикнигу. Для веб дизайнеров и программистов так же найдется множество специализированного софта, таких как: редакторы с подсветкой, среды программирования, компоненты, системы управления базами данных, разнообразные скрипты и шаблоны. Не так давно у нас появился материал для автолюбителей и владельцев мото - оригинальные и неоригинальные каталоги запчастей, книги и журналы по ремонту и обслуживанию, видеоуроки, статьи по чип тюнингу, прошивкам. Процедура получения контента элементарная, достаточно просто скачать торрент файл и добавить его в загрузку в вашем торрент клиенте. Если у вас нет специального торрент клиента, вы можете его скачать у нас.