Мерцание светлячков / Hotaru no Hikari / Glow of Fireflies [10 из 10] [RUS(int), JAP] [Япония, 2007 г., комедия, романтика, TVRip] [RAW] 

Цитировать
Мерцание светлячков / Hotaru no Hikari/ホタルノヒカリ / Glow of Fireflies
Страна: Япония
Год выпуска: 2007
Жанр: комедия
Продолжительность: 10 из 10
Режиссер: Yoshino Hiroshi, Nagumo Seiichi, Shigeyama Yoshinori
В ролях: Ayase Haruka
Fujiki Naohito
Kuninaka Ryoko
Kato Kazuki
Takeda Shinji
Itaya Yuka
Yasuda Ken
Asami Reina
Озвучка: Одноголосая - AlisaPH
Описание: Мерцание светлячков — это милая и добрая дорама об отношениях двух абсолютно непохожих людей, которых судьба заставила жить под одной крышей. Амэмия (Харука Аясэ) — упорная, старательная и ответственная девушка, для которой работа всегда на первом месте. Но так как на работе она устает, она с не меньшим усердием отдыхает — дома она вообще ничего не делает! Поэтому дома царит беспорядок, кругом валяется мусор и разбросанная одежда… Каждый расслабляется как может… Но это все ввергает в шок ее шефа (Фудзики Наохито), который возвращается в дом своего отца из-за проблем в семье и обнаруживает Амэмию под кучей газет в окружении валяющихся пивных бутылок… Естетственно, шеф просто помешан на порядке… Так начинается их история. Амэмия красивая и добрая, но парня у нее нет. У шефа проблемы с женой. Каким же образом будут развиваться их отношения?
Доп.информация: Лучшая дорама летнего сезона по версии журнала Никкан Спортс (Nikkan Sports).
Так же этот журнал определил Аясэ Харуку (Ayase Haruka) лучшей актрисой,
а Фудзики Наохито (Fujiki Naohito) и Кунинаку Рёко (Kuninaka Ryoko) лучшими актёром и актрисой второго плана.
Перевод:1 - 2: Перевод - Kunizza, корректировка - Volosoff, особая благодарность за помощь Telios`у.
3 - s-m-art.
4 - 10 budurr.
Дорама снята по манге Хиуры Сатору.
Отличия: наличие любительской одноголосой русской озвучки
http://rutracker.org/forum/viewtopic.php?t=1006547
http://rutracker.org/forum/viewtopic.php?t=561320
Неотключаемые субтитры: Без хардсаба
Качество видео: TVRip
Формат: AVI
Видео: DivX Codec 4.x, 704x396 (1.78:1), 29.970 fps, 29.970 fps
Аудио: Microsoft PCM, 1411.20 kbps avg, 44.100 kHz, 2 ch Язык Русский (в составе контейнера) ; Озвучка: одноголосая

Скриншоты




Сэмпл: http://yadi.sk/d/BhBQXxuU7T5MM

Скриншоты к 9 серии



Информация о качестве видео 9 серия

Мерцание светлячков\Hotaru no Hikari ep09 [Rus int].avi
General
Format : AVI
Format/Info : Audio Video Interleave
File size : 1.11 GiB
Duration : 46mn 4s
Overall bit rate : 3 456 Kbps
Writing library : VirtualDub build 32706/release
Video #0
ID : 0
Format : MPEG-4 Visual
Format settings, BVOP : No
Format settings, QPel : No
Format settings, GMC : No warppoints
Format settings, Matrix : Default (H.263)
Codec ID : DX50
Codec ID/Hint : DivX 5
Duration : 46mn 4s
Bit rate : 2 033 Kbps
Width : 704 pixels
Height : 396 pixels
Display aspect ratio : 16:9
Frame rate : 29.970 fps
Resolution : 24 bits
Colorimetry : 4:2:0
Scan type : Progressive
Bits/(Pixel*Frame) : 0.243
Stream size : 670 MiB (59%)
Writing library : DivX 6.6.1.4
Audio
Format : PCM
Format settings, Endianness : Little
Format settings, Sign : Unsigned
Codec ID : 1
Codec ID/Hint : Microsoft
Duration : 46mn 4s
Bit rate mode : Constant
Bit rate : 1 411.2 Kbps
Channel(s) : 2 channels
Sampling rate : 44.1 KHz
Resolution : 16 bits
Stream size : 465 MiB (41%)
Interleave, duration : 33 ms (1.00 video frame)
Interleave, preload duration : 500 ms

Скриншоты к 10 серии



Информация о качестве видео 10 серия

Мерцание светлячков\Hotaru no Hikari ep10 [Rus int].avi
General
Format : AVI
Format/Info : Audio Video Interleave
File size : 1.50 GiB
Duration : 57mn 49s
Overall bit rate : 3 705 Kbps
Writing library : VirtualDub build 32706/release
Video
Format : S-Mpeg 4 v3
Codec ID : MP43
Codec ID/Info : Microsoft MPEG-4 V3
Duration : 57mn 49s
Bit rate : 2 282 Kbps
Width : 704 pixels
Height : 396 pixels
Display aspect ratio : 16:9
Frame rate : 29.970 fps
Resolution : 24 bits
Bits/(Pixel*Frame) : 0.273
Stream size : 944 MiB (62%)
Audio
Format : PCM
Format settings, Endianness : Little
Format settings, Sign : Unsigned
Codec ID : 1
Codec ID/Hint : Microsoft
Duration : 57mn 49s
Bit rate mode : Constant
Bit rate : 1 411.2 Kbps
Channel(s) : 2 channels
Sampling rate : 44.1 KHz
Resolution : 16 bits
Stream size : 584 MiB (38%)
Interleave, duration : 33 ms (1.00 video frame)
Interleave, preload duration : 500 ms
Вы не можете начинать темы
Вы не можете отвечать на сообщения
Вы не можете редактировать свои сообщения
Вы не можете удалять свои сообщения
Вы не можете голосовать в опросах
Вы не можете прикреплять файлы к сообщениям
Вы можете скачивать файлы
!ВНИМАНИЕ!

Сайт не предоставляет электронные версии произведений, а занимается лишь коллекционированием и каталогизацией ссылок, присылаемых и публикуемых на форуме нашими читателями. Если вы являетесь правообладателем какого-либо представленного материала и не желаете, чтобы ссылка на него находилась в нашем каталоге, свяжитесь с нами, и мы незамедлительно удалим ее. Файлы для обмена на трекере предоставлены пользователями сайта, и администрация не несет ответственности за их содержание. Просьба не заливать файлы, защищенные авторскими правами, а также файлы нелегального содержания!

Искали программы, игры, дополнения, музыка mp3, аниме, аудио книги, журналы? Добро пожаловать на свободный торрент трекер Torrents, у нас можно скачать бесплатно, без смс и регистрации и прочих ограничений лучшие, отборные сборки программ, игр. Скачать торрентом не составит труда даже не опытному пользователю. Раздачи ежедневно обновляются, только лучшие и качественные раздачи, подробные описания и скриншоты. Огромная коллекция программ для работы со звуком, графикой, дизайном, а так же множество плагинов и инструментов к ним с подробной инструкцией и рекомендациями. Прошивки для навигаторов, карты. Разнообразные игры, для Windows, Linux. В коллекцие есть и старые игры любых жанров, Rpg, Action, Shooter, strategy Множество дополнений, модификаций, сценариев для популярных игр в жанре экш, рпг, гонки, стратегии, логические игры. Множество аддонов и сценариев для Microsoft Flight Simulator Большая коллекция книг, учебников. Если нет возможности купить печатное издание - смело скачивайте цифровую версию книги или, быть может, журнала. Не любите читать - можно загрузить бесплатно аудикнигу. Для веб дизайнеров и программистов так же найдется множество специализированного софта, таких как: редакторы с подсветкой, среды программирования, компоненты, системы управления базами данных, разнообразные скрипты и шаблоны. Не так давно у нас появился материал для автолюбителей и владельцев мото - оригинальные и неоригинальные каталоги запчастей, книги и журналы по ремонту и обслуживанию, видеоуроки, статьи по чип тюнингу, прошивкам. Процедура получения контента элементарная, достаточно просто скачать торрент файл и добавить его в загрузку в вашем торрент клиенте. Если у вас нет специального торрент клиента, вы можете его скачать у нас.