Ёжик в тумане / The Hedgehog in The Fog (Юрий Норштейн) [1975, мультфильм, BDRip 1080p] [Полная реставрация] 

Цитировать
Ёжик в тумане / The Hedgehog in The Fog- Год выпуска: 1975
Страна: СССР
Жанр: мультфильм
Продолжительность: 00:10:21
Студия: Союзмультфильм
Режиссер: Юрий Норштейн
Роли озвучивали: Вячеслав Невинный, Мария Виноградова, Алексей Баталов
Год выпуска реставрации: 2017
Страна выпуска реставрации: Япония-Описание:

Каждый вечер встречались Ёжик и Медвежонок, пили чай с малиновым вареньем и любовались звездным небом. Но раз как-то пошел Ёжик к другу, да заблудился в тумане...
Этот фильм нельзя рассказать, как музыку, как природу, как Красоту... Ни одно описание не способно передать его тонкости, все слова слишком просты и пошлы, они не могут передать волшебство созданного на экране мира...
-Информационные ссылки: КиноПоиск || IMDb || World Art-Качество: BDRip
Автор рипа: CaypoH [Beatrice-Raws]
Тип релиза: Без хардсаба; без линковки
Формат видео: MKV
Видео: MPEG4(х264); 10 bit; 1480x1080 (4:3); 25.0 Mбит/сек; 23.976 кадра/сек
Аудио: FLAC; 96kHz; 24bit; 2ch; 1.7 Mбит/сек; язык: русский
Субтитры: ASS; встроенные; язык: японские

Субтитры: ASS; встроенные; язык: английские
-Сэмпл: [скачать]

Информация о выполненной реставрации

  • выполнена в Японии
  • BD50 двуслойный - NO REGION CODE (ABC)
  • выпущено с разрешения и под полным контролем Ю.Б. Норштейна
  • полная покадровая реставрация изображения, выполненная с оригинальных негативов Госфильмофонда в высочайшем разрешении 2K: все царапины и грязь на пленке были удалены в японской студии IMAGICA, а затем продемонстрированы для контроля Ю. Норштейну
  • полная HI-RES реставрация звука c оригинальных магнитных пленок. Работы проводились известным японским звукорежиссером Seigen Ono
  • изображение: 1920х1080p HD (битрейт по видео - 37-40 Mb/s!)
  • звук: двухканальный несжатый PCM 96 khz / 24bit
  • субтитры японские и английские (отключаемые!)
  • 6 мультфильмов на диске: "25-е, первый день" (9 мин), "Сеча при Керженце" (10 мин), "Лиса и заяц" (12 мин), "Цапля и журавль" (10 мин), "Ежик в тумане" (10 мин), "Сказка сказок" (29 мин)
  • дополнительно: интервью и пресс-конференция Юрия Норштейна во время последнего посещения Японии осенью 2016 г., где он рассказывает об этом диске (15 + 19 мин)
-Подробнее о реставрации: [Статья на сайте IMAGICA на английском]-Blu Ray Disk со всем вышеперечисленным: [Раздача от РГ Мультфильмы]

Скриншоты

-

Подробные тех. данные

GeneralUnique ID                   : 249655758167167648143331323494326608202 (0xBBD1F3361A2C46E68A0873AB55F0214A)Complete name               : [Beatrice-Raws] Hedgehog in The Fog [BDRip 1480x1080 x264 FLAC].mkvFormat                      : MatroskaFormat version              : Version 4 / Version 2File size                   : 1.93 GiBDuration                    : 10 min 21 sOverall bit rate mode       : VariableOverall bit rate            : 26.7 Mb/sEncoded date                : UTC 2017-07-28 21:29:21Writing application         : mkvmerge v13.0.0 ('The Juggler') 64bitWriting library             : libebml v1.3.4 + libmatroska v1.4.5
VideoID : 1Format : AVCFormat/Info : Advanced Video CodecFormat profile : High 10@L5Format settings, CABAC : YesFormat settings, ReFrames : 12 framesCodec ID : V_MPEG4/ISO/AVCDuration : 10 min 21 sBit rate : 25.0 Mb/sWidth : 1 480 pixelsHeight : 1 080 pixelsDisplay aspect ratio : 1.370Frame rate mode : ConstantFrame rate : 23.976 (24000/1001) FPSColor space : YUVChroma subsampling : 4:2:0Bit depth : 10 bitsScan type : ProgressiveBits/(Pixel*Frame) : 0.653Stream size : 1.81 GiB (94%)Title : BDRip by CaypoHWriting library : x264 core 152 r2851M ba24899 (DJATOM's build)Encoding settings : cabac=1 / ref=12 / deblock=1:-2:-2 / analyse=0x3:0x133 / me=umh / subme=10 / psy=1 / psy_rd=1.20:0.00 / mixed_ref=1 / me_range=32 / chroma_me=1 / trellis=2 / 8x8dct=1 / cqm=0 / deadzone=21,11 / fast_pskip=0 / chroma_qp_offset=-2 / threads=12 / lookahead_threads=8 / sliced_threads=0 / nr=0 / decimate=1 / interlaced=0 / bluray_compat=0 / constrained_intra=0 / bframes=12 / b_pyramid=2 / b_adapt=2 / b_bias=0 / direct=1 / weightb=1 / open_gop=0 / weightp=2 / keyint=250 / keyint_min=23 / scenecut=40 / intra_refresh=0 / rc=crf / mbtree=0 / crf=16.0000 / qcomp=0.90 / qpmin=0 / qpmax=50 / qpstep=4 / ip_ratio=1.40 / pb_ratio=1.30 / aq=1:0.60Language : RussianDefault : YesForced : NoColor range : LimitedColor primaries : BT.709Transfer characteristics : BT.709Matrix coefficients : BT.709
AudioID : 2Format : FLACFormat/Info : Free Lossless Audio CodecCodec ID : A_FLACDuration : 10 min 21 sBit rate mode : VariableBit rate : 1 688 kb/sChannel(s) : 2 channelsChannel positions : Front: L RSampling rate : 96.0 kHzFrame rate : 23.439 FPS (4096 spf)Bit depth : 24 bitsStream size : 125 MiB (6%)Title : LPCM->FLACWriting library : libFLAC 1.3.2 (UTC 2017-01-01)Language : RussianDefault : YesForced : No
Text #1ID : 3Format : ASSCodec ID : S_TEXT/ASSCodec ID/Info : Advanced Sub Station AlphaDuration : 10 min 19 sBit rate : 49 b/sCount of elements : 54Compression mode : LosslessStream size : 3.71 KiB (0%)Title : Japanese SubLanguage : JapaneseDefault : NoForced : No
Text #2ID : 4Format : ASSCodec ID : S_TEXT/ASSCodec ID/Info : Advanced Sub Station AlphaDuration : 10 min 19 sBit rate : 43 b/sCount of elements : 58Compression mode : LosslessStream size : 3.25 KiB (0%)Title : English SubLanguage : EnglishDefault : NoForced : No
-

Информация о релизе

  • Данный релиз предназначен для просмотра на ПК. Воспроизведение на иных проигрывателях не гарантируется.
  • Данный релиз содержит 10-битное видео (Hi10p). Для корректного воспроизведения обязательно используйте кодеки, поддерживающие 10-битное видео.
    Обсудить проблемы с воспроизведением и получить дополнительную информацию можно здесь.

  • Контейнер пересобран согласно правилам раздела касаемо сжатия дорожек, так же убран флаг "по умолчанию" с японской дорожки субтитров.
  • Если у вас возникли проблемы с просмотром, не связанные с описанным выше, сообщите о них автору раздачи посредством сообщения в теме или ЛС Horodep.
Вы не можете начинать темы
Вы не можете отвечать на сообщения
Вы не можете редактировать свои сообщения
Вы не можете удалять свои сообщения
Вы не можете голосовать в опросах
Вы не можете прикреплять файлы к сообщениям
Вы можете скачивать файлы
!ВНИМАНИЕ!

Сайт не предоставляет электронные версии произведений, а занимается лишь коллекционированием и каталогизацией ссылок, присылаемых и публикуемых на форуме нашими читателями. Если вы являетесь правообладателем какого-либо представленного материала и не желаете, чтобы ссылка на него находилась в нашем каталоге, свяжитесь с нами, и мы незамедлительно удалим ее. Файлы для обмена на трекере предоставлены пользователями сайта, и администрация не несет ответственности за их содержание. Просьба не заливать файлы, защищенные авторскими правами, а также файлы нелегального содержания!

Искали программы, игры, дополнения, музыка mp3, аниме, аудио книги, журналы? Добро пожаловать на свободный торрент трекер Torrents, у нас можно скачать бесплатно, без смс и регистрации и прочих ограничений лучшие, отборные сборки программ, игр. Скачать торрентом не составит труда даже не опытному пользователю. Раздачи ежедневно обновляются, только лучшие и качественные раздачи, подробные описания и скриншоты. Огромная коллекция программ для работы со звуком, графикой, дизайном, а так же множество плагинов и инструментов к ним с подробной инструкцией и рекомендациями. Прошивки для навигаторов, карты. Разнообразные игры, для Windows, Linux. В коллекцие есть и старые игры любых жанров, Rpg, Action, Shooter, strategy Множество дополнений, модификаций, сценариев для популярных игр в жанре экш, рпг, гонки, стратегии, логические игры. Множество аддонов и сценариев для Microsoft Flight Simulator Большая коллекция книг, учебников. Если нет возможности купить печатное издание - смело скачивайте цифровую версию книги или, быть может, журнала. Не любите читать - можно загрузить бесплатно аудикнигу. Для веб дизайнеров и программистов так же найдется множество специализированного софта, таких как: редакторы с подсветкой, среды программирования, компоненты, системы управления базами данных, разнообразные скрипты и шаблоны. Не так давно у нас появился материал для автолюбителей и владельцев мото - оригинальные и неоригинальные каталоги запчастей, книги и журналы по ремонту и обслуживанию, видеоуроки, статьи по чип тюнингу, прошивкам. Процедура получения контента элементарная, достаточно просто скачать торрент файл и добавить его в загрузку в вашем торрент клиенте. Если у вас нет специального торрент клиента, вы можете его скачать у нас.