Саки / Saki [4/4] [Япония, 2016, лайв-экшн, спорт, школа, 720p HDTVRip] (RAW) [DVO + original + sub] 

Цитировать
Саки / Saki
Год выпуска: 2016
Страна: Япония
Жанр: лайв-экшн, спорт, школа
Продолжительность: 4 серии по 25 мин
Перевод: Любительский (двухголосый закадровый)
Русские субтитры: есть
Режиссер: Онума Юити
В ролях: Хамабэ Минами, Хирота Айка, Асакава Нана, Фурухата Сэйка, Ямада Анна, Нагао Мария и др.
Описание: Школьница Саки Миянага и её одноклассницы увлечены игрой в маджонг. Они ставят себе цель — попасть на национальный чемпионат.
Релиз группы: и [DeadLine Studio]
Доп. информация: Перевод: anipaladin
Озвучивание: Ворон и MezIdA
Смотреть обязательно с форсированными субтитрами
Прежде чем качать видео и комментировать, скачайте сэмпл и послушайте!

Качество видео: HDTV - Сэмпл
Формат видео: MKV
Видео: 1280 x 720 (16:9), 29,970 fps, H.264/AVC Encoder ~1013 kbps avg, 0.037 bit/pixel
Аудио: 48 kHz, AC3 Dolby Digital, 2/0 (L,R) ch, ~192 kbps (Русский)
Аудио 2: 48 kHz, AC3 Dolby Digital, 2/0 (L,R) ch, ~192 kbps (Японский)
Формат субтитров: [форсированный(надписи) / полные]softsub (ass)

Скриншоты

отчет MediaInfo

Формат : Matroska
Версия формата : Version 4 / Version 2
Размер файла : 241 Мбайт
Продолжительность : 23 м. 59 с.
Общий поток : 1402 Кбит/сек
Дата кодирования : UTC 2017-08-02 20:02:06
Программа кодирования : mkvmerge v8.2.0 ('World of Adventure') 32bit
Библиотека кодирования : libebml v1.3.1 + libmatroska v1.4.2
Attachments : Arkhip_font.ttf / FRAHV.TTF / FrizQuadrataC.otf / OpenSans-Semibold.ttf
Видео
Идентификатор : 1
Формат : AVC
Формат/Информация : Advanced Video Codec
Профиль формата : Main@L4.1
Параметр CABAC формата : Да
Параметр ReFrames формата : 4 кадра
Идентификатор кодека : V_MPEG4/ISO/AVC
Продолжительность : 23 м. 59 с.
Битрейт : 1013 Кбит/сек
Ширина : 1280 пикселей
Высота : 720 пикселей
Соотношение сторон : 16:9
Режим частоты кадров : Постоянный
Частота кадров : 29,970 (30000/1001) кадров/сек
Цветовое пространство : YUV
Субдискретизация насыщенности : 4:2:0
Битовая глубина : 8 бит
Тип развёртки : Прогрессивная
Бит/(Пиксели*Кадры) : 0.037
Размер потока : 174 Мбайт (72%)
Библиотека кодирования : x264 core 148 r2744 b97ae06
Настройки программы : cabac=1 / ref=3 / deblock=1:0:0 / analyse=0x1:0x111 / me=hex / subme=7 / psy=1 / psy_rd=1.00:0.00 / mixed_ref=1 / me_range=16 / chroma_me=1 / trellis=1 / 8x8dct=0 / cqm=0 / deadzone=21,11 / fast_pskip=1 / chroma_qp_offset=-2 / threads=12 / lookahead_threads=2 / sliced_threads=0 / nr=0 / decimate=1 / interlaced=0 / bluray_compat=0 / constrained_intra=0 / bframes=3 / b_pyramid=2 / b_adapt=1 / b_bias=0 / direct=1 / weightb=1 / open_gop=0 / weightp=2 / keyint=240 / keyint_min=1 / scenecut=40 / intra_refresh=0 / rc_lookahead=40 / rc=crf / mbtree=1 / crf=22.0 / qcomp=0.60 / qpmin=0 / qpmax=69 / qpstep=4 / ip_ratio=1.40 / aq=1:1.00
Default : Да
Forced : Нет
Цветовой диапазон : Limited
Основные цвета : BT.709
Характеристики трансфера : BT.709
Коэффициенты матрицы : BT.709
Аудио #1
Идентификатор : 2
Формат : AC-3
Формат/Информация : Audio Coding 3
Расширение режима : CM (complete main)
Параметр Endianness формата : Big
Идентификатор кодека : A_AC3
Продолжительность : 23 м. 59 с.
Вид битрейта : Постоянный
Битрейт : 192 Кбит/сек
Каналы : 2 канала
Расположение каналов : Front: L R
Частота : 48,0 КГц
Частота кадров : 31,250 кадров/сек (1536 spf)
Битовая глубина : 16 бит
Метод сжатия : С потерями
Размер потока : 33,0 Мбайт (14%)
Заголовок : Ворон и MezIdA
Язык : Russian
Default : Да
Forced : Нет
Аудио #2
Идентификатор : 3
Формат : AC-3
Формат/Информация : Audio Coding 3
Расширение режима : CM (complete main)
Параметр Endianness формата : Big
Идентификатор кодека : A_AC3
Продолжительность : 23 м. 59 с.
Вид битрейта : Постоянный
Битрейт : 192 Кбит/сек
Каналы : 2 канала
Расположение каналов : Front: L R
Частота : 48,0 КГц
Частота кадров : 31,250 кадров/сек (1536 spf)
Битовая глубина : 16 бит
Метод сжатия : С потерями
Размер потока : 32,9 Мбайт (14%)
Заголовок : Original
Язык : Japanese
Default : Нет
Forced : Нет
Текст #1
Идентификатор : 4
Формат : ASS
Идентификатор кодека : S_TEXT/ASS
Идентификатор кодека/Информация : Advanced Sub Station Alpha
Продолжительность : 23 м. 53 с.
Битрейт : 22 бит/сек
Count of elements : 51
Метод сжатия : Без потерь
Размер потока : 3,86 Кбайт (0%)
Заголовок : форсированный(надписи)
Язык : Russian
Default : Да
Forced : Да
Текст #2
Идентификатор : 5
Формат : ASS
Идентификатор кодека : S_TEXT/ASS
Идентификатор кодека/Информация : Advanced Sub Station Alpha
Продолжительность : 23 м. 59 с.
Битрейт : 135 бит/сек
Count of elements : 334
Метод сжатия : Без потерь
Размер потока : 23,8 Кбайт (0%)
Заголовок : Перевод: anipaladin
Язык : Russian
Default : Нет
Forced : Нет

Пример Субтитров

Dialogue: 99,0:01:29.73,0:01:32.19,Default,,0,0,0,,Да, спасибо.
Dialogue: 99,0:03:03.38,0:03:04.42,Default,,0,0,0,,Приятного дня.
Dialogue: 99,0:03:23.68,0:03:24.33,Default,,0,0,0,,Ой...
Dialogue: 99,0:04:00.68,0:04:02.51,Default,,0,0,0,,Хочешь вступить в клуб?
Dialogue: 99,0:04:07.11,0:04:08.56,Default,,0,0,0,,Нет.
Dialogue: 99,0:04:10.91,0:04:14.39,Default,,0,0,0,,Мы всегда рады новичкам!
Dialogue: 99,0:04:14.39,0:04:15.73,Default,,0,0,0,,Да, Мако?
Dialogue: 99,0:04:15.73,0:04:18.82,Default,,0,0,0,,Набор уже давно прошёл, но президент будет рада.
Dialogue: 99,0:04:18.82,0:04:20.98,Default,,0,0,0,,Заходи.
Dialogue: 99,0:04:20.21,0:04:20.98,Default,,0,0,0,,{\a6}Простите...
Dialogue: 99,0:04:20.98,0:04:24.20,Default,,0,0,0,,Давай. Тут недалеко.
Dialogue: 99,0:04:38.80,0:04:40.72,Default,,0,0,0,,Нодока, твоя знакомая?
Dialogue: 99,0:04:41.83,0:04:42.63,Default,,0,0,0,,Нет.
Dialogue: 99,0:04:43.89,0:04:47.16,Default,,0,0,0,,Ты та самая девушка, которая всегда читает книги на лавочке?
Dialogue: 99,0:04:48.40,0:04:49.16,Default,,0,0,0,,Да.
Dialogue: 99,0:04:50.10,0:04:53.32,Default,,0,0,0,,Мне показалось, что она хочет вступить к нам.
Dialogue: 99,0:04:53.32,0:04:56.16,Default,,0,0,0,,Вовсе нет.
Dialogue: 99,0:04:56.16,0:05:01.42,Default,,0,0,0,,Вот, ты обронила.
Dialogue: 99,0:05:04.81,0:05:06.74,Default,,0,0,0,,Большое спасибо...
Dialogue: 99,0:05:07.62,0:05:12.25,Default,,0,0,0,,Ну вот, а я-то думала у нас будет пополнение.
Dialogue: 99,0:05:13.62,0:05:15.71,Default,,0,0,0,,Тогда я пойду домой.
Dialogue: 99,0:05:17.81,0:05:18.71,Default,,0,0,0,,Постой.
Dialogue: 99,0:05:21.77,0:05:23.94,Default,,0,0,0,,Ты умеешь играть в маджонг?
Dialogue: 99,0:05:25.97,0:05:27.49,Default,,0,0,0,,Маджонг?..
Dialogue: 99,0:05:28.77,0:05:30.90,Default,,0,0,0,,Правила знаю...
Dialogue: 99,0:05:30.90,0:05:33.27,Default,,0,0,0,,Отлично! Поиграем?
Dialogue: 99,0:05:34.15,0:05:37.98,Default,,0,0,0,,Ибо президент, похоже, не собирается вставать.
Dialogue: 99,0:05:37.98,0:05:40.02,Default,,0,0,0,,Давай играть! Ну давай!

Примечание

Лайв создан как подготовка к фильму. Всего есть 4 серии лайва и спешел(будет позже залит). Фильм еще вроде как не появлялся в сети.
Вы не можете начинать темы
Вы не можете отвечать на сообщения
Вы не можете редактировать свои сообщения
Вы не можете удалять свои сообщения
Вы не можете голосовать в опросах
Вы не можете прикреплять файлы к сообщениям
Вы можете скачивать файлы
!ВНИМАНИЕ!

Сайт не предоставляет электронные версии произведений, а занимается лишь коллекционированием и каталогизацией ссылок, присылаемых и публикуемых на форуме нашими читателями. Если вы являетесь правообладателем какого-либо представленного материала и не желаете, чтобы ссылка на него находилась в нашем каталоге, свяжитесь с нами, и мы незамедлительно удалим ее. Файлы для обмена на трекере предоставлены пользователями сайта, и администрация не несет ответственности за их содержание. Просьба не заливать файлы, защищенные авторскими правами, а также файлы нелегального содержания!

Искали программы, игры, дополнения, музыка mp3, аниме, аудио книги, журналы? Добро пожаловать на свободный торрент трекер Torrents, у нас можно скачать бесплатно, без смс и регистрации и прочих ограничений лучшие, отборные сборки программ, игр. Скачать торрентом не составит труда даже не опытному пользователю. Раздачи ежедневно обновляются, только лучшие и качественные раздачи, подробные описания и скриншоты. Огромная коллекция программ для работы со звуком, графикой, дизайном, а так же множество плагинов и инструментов к ним с подробной инструкцией и рекомендациями. Прошивки для навигаторов, карты. Разнообразные игры, для Windows, Linux. В коллекцие есть и старые игры любых жанров, Rpg, Action, Shooter, strategy Множество дополнений, модификаций, сценариев для популярных игр в жанре экш, рпг, гонки, стратегии, логические игры. Множество аддонов и сценариев для Microsoft Flight Simulator Большая коллекция книг, учебников. Если нет возможности купить печатное издание - смело скачивайте цифровую версию книги или, быть может, журнала. Не любите читать - можно загрузить бесплатно аудикнигу. Для веб дизайнеров и программистов так же найдется множество специализированного софта, таких как: редакторы с подсветкой, среды программирования, компоненты, системы управления базами данных, разнообразные скрипты и шаблоны. Не так давно у нас появился материал для автолюбителей и владельцев мото - оригинальные и неоригинальные каталоги запчастей, книги и журналы по ремонту и обслуживанию, видеоуроки, статьи по чип тюнингу, прошивкам. Процедура получения контента элементарная, достаточно просто скачать торрент файл и добавить его в загрузку в вашем торрент клиенте. Если у вас нет специального торрент клиента, вы можете его скачать у нас.