Охота на Монстра / Monster Hunt (2015) BDRip 720р от ТВОЙ_ТРЕКЕР.РУ | D | iTunes 

Цитировать

Информация о фильме
Название: Охота на Монстра
Оригинальное название: Monster Hunt
Год выхода: 2015
Жанр: Фэнтези, боевик, комедия
Режиссер: Раман Хюи
В ролях: Тан Вэй, Сюэ Бай, Эрик Цан, Цзин Божань, У Цзян, Яо Чэнь
О фильме:
Когда-то давно люди и демоны мирно сосуществовали, но затем человеческая жадность привела род демонов на грань исчезновения...
Плодом страсти обычного парня Инь Тяня и таинственной незнакомки становится малыш, которому предначертано занять трон короля демонов. Теперь странноватой парочке придется защищать свое чадо от злых демонов и коварных людей. Главным их врагом становится жестокий и алчный Цянь Ху Гэ, стремящийся пленить будущего короля, чтобы обрести безмерную силу.

Страна: Китай, Гонконг
Студия: White Rabbit Entertainment, The, Base FX, Industrial Light & Magic (ILM)
Продолжительность: 01:57:04
Перевод: Дубляж [iTunes]
Файл
Кодек: H.264
Качество: BDRip 720р от SuperMin
Видео: 1280x536 (2.40:1), 3928 kbps, 23.976 fps
Звук: Русский (AC-3, 6ch, 384 kbps)
Субтитры: русские (форс.), английские

Лог&MI

x264 [info]: frame I:2142 Avg QP:18.67 size:101426
x264 [info]: frame P:41118 Avg QP:19.96 size: 39812
x264 [info]: frame B:125154 Avg QP:22.89 size: 12744
x264 [info]: consecutive B-frames: 3.6% 4.6% 10.7% 24.5% 22.1% 31.4% 2.1% 0.6% 0.4%
x264 [total]: encoded 168414 frames, 6.56 fps, 3928.27 kb/s
General
Unique ID : 184459900633063374768174487238487798078 (0x8AC5AF430BC7FACF8FC2604CBCA7713E)
Complete name : F:ФИЛЬМЫОхота на Монстра.2015.x264.BDRip.720p.mkv
Format : Matroska
Format version : Version 4 / Version 2
File size : 3.53 GiB
Duration : 1 h 57 min
Overall bit rate : 4 314 kb/s
Movie name : Охота на Монстра / Monster Hunt (2015) - #LORDKILL#
Encoded date : UTC 2017-09-24 05:12:07
Writing application : mkvmerge v9.5.0 ('Quiet Fire') 64bit
Writing library : libebml v1.3.4 + libmatroska v1.4.5
Video
ID : 1
Format : AVC
Format/Info : Advanced Video Codec
Format profile : High@L4.1
Format settings, CABAC : Yes
Format settings, ReFrames : 11 frames
Codec ID : V_MPEG4/ISO/AVC
Duration : 1 h 57 min
Bit rate : 3 928 kb/s
Width : 1 280 pixels
Height : 536 pixels
Display aspect ratio : 2.40:1
Frame rate mode : Constant
Frame rate : 23.976 (24000/1001) FPS
Color space : YUV
Chroma subsampling : 4:2:0
Bit depth : 8 bits
Scan type : Progressive
Bits/(Pixel*Frame) : 0.239
Stream size : 3.21 GiB (91%)
Writing library : x264 core 146 r2538 121396c
Encoding settings : cabac=1 / ref=11 / deblock=1:-3:-3 / analyse=0x3:0x113 / me=umh / subme=11 / psy=1 / psy_rd=1.00:0.10 / mixed_ref=1 / me_range=64 / chroma_me=1 / trellis=2 / 8x8dct=1 / cqm=0 / deadzone=21,11 / fast_pskip=0 / chroma_qp_offset=-3 / threads=12 / lookahead_threads=2 / sliced_threads=0 / nr=0 / decimate=1 / interlaced=0 / bluray_compat=0 / constrained_intra=0 / bframes=8 / b_pyramid=2 / b_adapt=2 / b_bias=0 / direct=1 / weightb=1 / open_gop=0 / weightp=2 / keyint=240 / keyint_min=23 / scenecut=40 / intra_refresh=0 / rc=crf / mbtree=0 / crf=19.0 / qcomp=0.60 / qpmin=0 / qpmax=69 / qpstep=4 / ip_ratio=1.40 / pb_ratio=1.30 / aq=1:1.00
Language : English
Default : Yes
Forced : No
Audio
ID : 2
Format : AC-3
Format/Info : Audio Coding 3
Mode extension : CM (complete main)
Format settings, Endianness : Big
Codec ID : A_AC3
Duration : 1 h 57 min
Bit rate mode : Constant
Bit rate : 384 kb/s
Channel(s) : 6 channels
Channel positions : Front: L C R, Side: L R, LFE
Sampling rate : 48.0 kHz
Frame rate : 31.250 FPS (1536 spf)
Bit depth : 16 bits
Compression mode : Lossy
Stream size : 321 MiB (9%)
Title : Дубляж - iTunes
Language : Russian
Default : No
Forced : No
Text #1
ID : 3
Format : UTF-8
Codec ID : S_TEXT/UTF8
Codec ID/Info : UTF-8 Plain Text
Duration : 1 h 28 min
Bit rate : 6 b/s
Count of elements : 67
Stream size : 4.16 KiB (0%)
Title : Forced
Language : Russian
Default : Yes
Forced : No
Text #2
ID : 4
Format : UTF-8
Codec ID : S_TEXT/UTF8
Codec ID/Info : UTF-8 Plain Text
Duration : 1 h 51 min
Bit rate : 39 b/s
Count of elements : 1511
Stream size : 32.1 KiB (0%)
Language : English
Default : No
Forced : No
Menu
00:00:00.000 : en:Chapter 1
00:08:56.494 : en:Chapter 2
00:19:49.105 : en:Chapter 3
00:29:36.858 : en:Chapter 4
00:40:09.532 : en:Chapter 5
00:47:49.241 : en:Chapter 6
00:58:35.762 : en:Chapter 7
01:09:18.571 : en:Chapter 8
01:17:06.497 : en:Chapter 9
01:28:18.710 : en:Chapter 10
01:36:06.594 : en:Chapter 11
01:48:05.270 : en:Chapter 12

Скриншоты

Вы не можете начинать темы
Вы не можете отвечать на сообщения
Вы не можете редактировать свои сообщения
Вы не можете удалять свои сообщения
Вы не можете голосовать в опросах
Вы не можете прикреплять файлы к сообщениям
Вы можете скачивать файлы
!ВНИМАНИЕ!

Сайт не предоставляет электронные версии произведений, а занимается лишь коллекционированием и каталогизацией ссылок, присылаемых и публикуемых на форуме нашими читателями. Если вы являетесь правообладателем какого-либо представленного материала и не желаете, чтобы ссылка на него находилась в нашем каталоге, свяжитесь с нами, и мы незамедлительно удалим ее. Файлы для обмена на трекере предоставлены пользователями сайта, и администрация не несет ответственности за их содержание. Просьба не заливать файлы, защищенные авторскими правами, а также файлы нелегального содержания!

Искали программы, игры, дополнения, музыка mp3, аниме, аудио книги, журналы? Добро пожаловать на свободный торрент трекер Torrents, у нас можно скачать бесплатно, без смс и регистрации и прочих ограничений лучшие, отборные сборки программ, игр. Скачать торрентом не составит труда даже не опытному пользователю. Раздачи ежедневно обновляются, только лучшие и качественные раздачи, подробные описания и скриншоты. Огромная коллекция программ для работы со звуком, графикой, дизайном, а так же множество плагинов и инструментов к ним с подробной инструкцией и рекомендациями. Прошивки для навигаторов, карты. Разнообразные игры, для Windows, Linux. В коллекцие есть и старые игры любых жанров, Rpg, Action, Shooter, strategy Множество дополнений, модификаций, сценариев для популярных игр в жанре экш, рпг, гонки, стратегии, логические игры. Множество аддонов и сценариев для Microsoft Flight Simulator Большая коллекция книг, учебников. Если нет возможности купить печатное издание - смело скачивайте цифровую версию книги или, быть может, журнала. Не любите читать - можно загрузить бесплатно аудикнигу. Для веб дизайнеров и программистов так же найдется множество специализированного софта, таких как: редакторы с подсветкой, среды программирования, компоненты, системы управления базами данных, разнообразные скрипты и шаблоны. Не так давно у нас появился материал для автолюбителей и владельцев мото - оригинальные и неоригинальные каталоги запчастей, книги и журналы по ремонту и обслуживанию, видеоуроки, статьи по чип тюнингу, прошивкам. Процедура получения контента элементарная, достаточно просто скачать торрент файл и добавить его в загрузку в вашем торрент клиенте. Если у вас нет специального торрент клиента, вы можете его скачать у нас.