Архивный детектив / Jikou Keisatsu / Time Limit Detective / Statute of Limitation Police [9 из 9] [Япония, 2006, комедийно-пародийный детектив, DVDRip] [RAW] [360p] DVO (GREEN TEA) 

Цитировать
Архивный детектив / Jikou Keisatsu / Time Limit Detective / Statute of Limitation Police- Страна: Япония
Год выпуска: 2006
Жанр: комедийно-пародийный детектив
Продолжительность: 9 эпизодов по 46 мин.-Режиссер: Miki Satoshi (ep1-2&9), Iwamatsu Ryo (ep3), Sono Shion (ep4&6), Keralino Sandorovich (ep8), Tsukamoto Renpei (ep5)
В ролях:
Odagiri Joe as Kiriyama Shuichiro
Aso Kumiko as Mikazuki Shizuka
Toyohara Kosuke as Jumonji Hayate
Fuse Eri as Matarai
Mitsuishi Ken as Morosawa
Eguchi Noriko as Saneie
Iwamatsu Ryo as Kumamoto
Hida Yasuhito as Hachisuka-Перевод : Weird (aka rorv), Shalicka, при поддержке xaxa-Озвучка : от [GREEN TEA] двухголосая (жен./муж.) Марина Кириченко и Ярослав Мельник-Описание:Итак, краткое описание сюжета. Как не трудно догадаться из названия или заглавной картинки действие крутится вокруг полицейского участка, а действующие лица - полицейские. А если точнее, то вокруг отдела, занимающегося делами с истёкшим сроком уголовного преследования (в Японии - 15 лет). Прямо скажем, отдел не самый важный и большой и жизнь в нём протекает весьма расслабленно и фривольно. А чего суетится-то? Ведь срок уголовного преследования уже истёк и даже если преступник будет найден, его уже нельзя будет осудить. Поэтому дела, попадающие к ним - это всего лишь кучка исписанных протоколов, да ненужные уже вещественные улики, и работа отдела состоит только в уничтожении документации, да возвращению вещдоков их хозяевам. Никаких громких расследований, погонь и перестрелок. Чисто бюрократический отдел, занимающийся рутиной.
Но я, скорее всего, заснул бы на первой же серии, если бы сериал был про то, как они исполняют свои служебные обязанности)) К счастью это не так. Всё началось с того, что один из сотрудников отдела - Кирияма Сюитиро (Одагири Джо) - решил завести себе хобби. Общими усилиями коллег хобби было найдено - расследовать преступления давно минувших дней, у которых истёк срок уголовного преследования. Вот об этом сериал. Поэтому мой крепкий сон был нарушен)) На протяжении всей дорамы нас ждёт увлекательное, искромётное действие с кучей великолепных героев, как главных, так и второстепенных. (с) ax_xa
-Неотключаемые субтитры: Без хардсаба
Качество видео: DVDRip
Разрешение: 360p
Формат: AVI
Видео: DivX, 704x396 (16:9), ~1400 kbps, 29.970 fps
Аудио: MP3, 128 Kbps, 48 KHz, 2 ch, Язык Русский (в составе контейнера) ; Озвучка: двухголосая, Марина Кириченко и Ярослав Мельник [GREEN TEA]Добавлена 09 серия. Перекачайте торрент-файл.
Проект завершен, приятного просмотра.

Подробные тех. данные

General
Полное имя : J:\Torrents\Сериалы\[GREEN TEA] Архивный детектив\[GREEN TEA] Архивный детектив 01.avi
Формат : AVI
Формат/Информация : Audio Video Interleave
Размер файла : 506 MiB
Продолжительность : 46mn 11s
Общий поток : 1 530 Kbps
Программа кодирования : VirtualDubMod 1.5.10.2 (build 2540/release)
Библиотека кодирования : VirtualDubMod build 2540/release
Video
Идентификатор : 0
Формат : MPEG-4 Visual
Профиль формата : Simple@L3
Параметр BVOP формата : No
Параметр QPel формата : No
Параметр GMC формата : No warppoints
Параметр матрицы формата : Default (H.263)
Идентификатор кодека : DX50
Идентификатор кодека/Подсказка : DivX 5
Продолжительность : 46mn 11s
Битрейт : 1 391 Kbps
Ширина : 704 pixels
Высота : 396 pixels
Соотношение сторон : 16:9
Частота кадров : 29.970 fps
Цветовое пространство : YUV
Субдискретизация насыщенности : 4:2:0
Битовая глубина : 8 bits
Тип развёртки : Progressive
Метод сжатия : Lossy
Бит/(Пиксели*Кадры) : 0.166
Размер потока : 459 MiB (91%)
Библиотека кодирования : XviD 64
Audio
Идентификатор : 1
Формат : MPEG Audio
Версия формата : Version 1
Профиль формата : Layer 3
Режим : Joint stereo
Расширение режима : MS Stereo
Идентификатор кодека : 55
Идентификатор кодека/Подсказка : MP3
Продолжительность : 46mn 11s
Вид битрейта : Constant
Битрейт : 128 Kbps
Каналы : 2 channels
Частота : 48.0 KHz
Метод сжатия : Lossy
Размер потока : 42.3 MiB (8%)
Выравнивание : Aligned on interleaves
Продолжительность промежутка : 33 ms (1.00 video frame)
Время предзагрузки промежутка : 504 ms

Скриншоты

Вы не можете начинать темы
Вы не можете отвечать на сообщения
Вы не можете редактировать свои сообщения
Вы не можете удалять свои сообщения
Вы не можете голосовать в опросах
Вы не можете прикреплять файлы к сообщениям
Вы можете скачивать файлы
!ВНИМАНИЕ!

Сайт не предоставляет электронные версии произведений, а занимается лишь коллекционированием и каталогизацией ссылок, присылаемых и публикуемых на форуме нашими читателями. Если вы являетесь правообладателем какого-либо представленного материала и не желаете, чтобы ссылка на него находилась в нашем каталоге, свяжитесь с нами, и мы незамедлительно удалим ее. Файлы для обмена на трекере предоставлены пользователями сайта, и администрация не несет ответственности за их содержание. Просьба не заливать файлы, защищенные авторскими правами, а также файлы нелегального содержания!

Искали программы, игры, дополнения, музыка mp3, аниме, аудио книги, журналы? Добро пожаловать на свободный торрент трекер Torrents, у нас можно скачать бесплатно, без смс и регистрации и прочих ограничений лучшие, отборные сборки программ, игр. Скачать торрентом не составит труда даже не опытному пользователю. Раздачи ежедневно обновляются, только лучшие и качественные раздачи, подробные описания и скриншоты. Огромная коллекция программ для работы со звуком, графикой, дизайном, а так же множество плагинов и инструментов к ним с подробной инструкцией и рекомендациями. Прошивки для навигаторов, карты. Разнообразные игры, для Windows, Linux. В коллекцие есть и старые игры любых жанров, Rpg, Action, Shooter, strategy Множество дополнений, модификаций, сценариев для популярных игр в жанре экш, рпг, гонки, стратегии, логические игры. Множество аддонов и сценариев для Microsoft Flight Simulator Большая коллекция книг, учебников. Если нет возможности купить печатное издание - смело скачивайте цифровую версию книги или, быть может, журнала. Не любите читать - можно загрузить бесплатно аудикнигу. Для веб дизайнеров и программистов так же найдется множество специализированного софта, таких как: редакторы с подсветкой, среды программирования, компоненты, системы управления базами данных, разнообразные скрипты и шаблоны. Не так давно у нас появился материал для автолюбителей и владельцев мото - оригинальные и неоригинальные каталоги запчастей, книги и журналы по ремонту и обслуживанию, видеоуроки, статьи по чип тюнингу, прошивкам. Процедура получения контента элементарная, достаточно просто скачать торрент файл и добавить его в загрузку в вашем торрент клиенте. Если у вас нет специального торрент клиента, вы можете его скачать у нас.